<?xml version="1.0" standalone="no"?>
<!DOCTYPE svg PUBLIC "-//W3C//DTD SVG 1.1//EN" "http://www.w3.org/Graphics/SVG/1.1/DTD/svg11.dtd" >
<svg xmlns="http://www.w3.org/2000/svg">
<metadata></metadata>
<defs>
<font id="kelson_sans_rubold" horiz-adv-x="1155" >
<font-face units-per-em="2048" ascent="1536" descent="-512" />
<missing-glyph horiz-adv-x="514" />
<glyph horiz-adv-x="2048" />
<glyph horiz-adv-x="2048" />
<glyph horiz-adv-x="682" />
<glyph unicode="&#xd;" horiz-adv-x="548" />
<glyph unicode=" "  horiz-adv-x="514" />
<glyph unicode="&#x09;" horiz-adv-x="514" />
<glyph unicode="&#xa0;" horiz-adv-x="514" />
<glyph unicode="!" horiz-adv-x="548" d="M123 147q0 43 17.5 76.5t45.5 51t61.5 25.5t67.5 -0.5t62 -25.5t45.5 -50.5t17.5 -76.5q0 -42 -17.5 -75.5t-45.5 -50.5t-61.5 -25t-67.5 0t-62 25t-45.5 50t-17.5 76zM156 401v1176h278l-20 -1176h-258z" />
<glyph unicode="&#x22;" horiz-adv-x="716" d="M72 1575h237l-8 -465h-221zM430 1575h238l-9 -465h-221z" />
<glyph unicode="#" horiz-adv-x="1435" d="M66 424l47 219h204l60 295h-205l47 219h205l84 406h231l-84 -406h297l84 406h232l-84 -406h200l-47 -219h-200l-60 -295h201l-47 -219h-199l-86 -424h-233l86 424h-297l-86 -424h-232l86 424h-204zM549 643h297l59 295h-297z" />
<glyph unicode="$" horiz-adv-x="1206" d="M90 428h285q5 -96 57.5 -141t181.5 -45t188.5 59t59.5 191q0 34 -10.5 61.5t-26 46t-43 34t-51 24t-62.5 16t-63.5 10.5t-68 8t-64.5 8q-58 8 -107 23t-98.5 47t-84 78.5t-56 120.5t-21.5 168q0 192 100 303.5t292 136.5v221h252v-223q160 -26 251.5 -124t108.5 -286 h-285q-6 96 -57 134t-158 38q-119 0 -169 -43.5t-50 -154.5q0 -37 8 -65t19.5 -47.5t35.5 -34.5t45 -23.5t59 -15.5t66 -11t78.5 -10.5t85.5 -11.5q61 -10 108 -24.5t96 -45t80.5 -73.5t52 -113.5t20.5 -161.5q0 -237 -94.5 -359.5t-300.5 -150.5v-215h-252v213 q-408 44 -408 438z" />
<glyph unicode="%" horiz-adv-x="1693" d="M61 1112v176q0 154 73.5 228.5t225.5 74.5q156 0 230 -73.5t74 -229.5v-176q0 -156 -74 -229.5t-230 -73.5q-153 0 -226 73.5t-73 229.5zM272 1143q0 -59 19 -87t69 -28q52 0 71.5 28t19.5 87v117q0 59 -19.5 85.5t-71.5 26.5q-50 0 -69 -26.5t-19 -85.5v-117zM469 0 l457 1606l276 -27l-459 -1608zM1010 303v176q0 154 73.5 228.5t225.5 74.5q156 0 229.5 -73.5t73.5 -229.5v-176q0 -156 -73.5 -229.5t-229.5 -73.5q-153 0 -226 73.5t-73 229.5zM1221 334q0 -59 19 -87t69 -28q51 0 70.5 28t19.5 87v117q0 59 -19 85.5t-71 26.5 q-50 0 -69 -26.5t-19 -85.5v-117z" />
<glyph unicode="&#x26;" horiz-adv-x="1343" d="M106 457q0 123 73.5 230.5t193.5 156.5q-193 84 -193 323q0 185 136.5 314t334.5 129q221 0 339 -113t112 -313h-273q3 89 -46.5 126.5t-131.5 37.5q-78 0 -131 -54.5t-53 -130.5t53.5 -134t130.5 -58h623v-250h-162v-281q0 -42 7.5 -75t25 -62t52.5 -44.5t85 -16.5 l2 -271q-248 9 -309 195q-43 -93 -148.5 -146t-210.5 -53q-244 0 -377 120.5t-133 369.5zM395 467q-1 -113 62 -174.5t164 -61.5q88 0 151.5 56t63.5 157v277h-187q-113 0 -183.5 -73t-70.5 -181z" />
<glyph unicode="'" horiz-adv-x="376" d="M72 1575h237l-8 -465h-221z" />
<glyph unicode="(" horiz-adv-x="620" d="M119 39v1114q0 106 26 190.5t79.5 147.5t142 95.5t206.5 29.5v-285q-93 4 -132.5 -42.5t-39.5 -139.5v-1106q0 -93 39.5 -139.5t132.5 -42.5v-285q-118 -3 -206.5 29.5t-142 95.5t-79.5 147.5t-26 190.5z" />
<glyph unicode=")" horiz-adv-x="638" d="M63 -139q93 -4 133 42.5t40 139.5v1106q0 93 -40 139.5t-133 42.5v285q118 3 206.5 -29.5t142 -95.5t80 -147.5t26.5 -190.5v-1114q0 -106 -26.5 -190.5t-80 -147.5t-142 -95.5t-206.5 -29.5v285z" />
<glyph unicode="*" horiz-adv-x="718" d="M59 1436l181 180q74 -74 104 -172h49q27 90 107 170l178 -178q-77 -77 -170 -105q-2 -16 -2 -49q99 -30 172 -106l-178 -179q-73 70 -105 170q-32 4 -51 2q-30 -98 -104 -172l-179 179q78 78 168 104q4 16 4 49q-101 34 -174 107z" />
<glyph unicode="+" horiz-adv-x="987" d="M68 647v234h294v305h252v-305h295v-234h-295v-303h-252v303h-294z" />
<glyph unicode="," horiz-adv-x="428" d="M0 -195q29 21 47.5 44t28.5 41t14 49t4 49t-1 61t-1 66h238q15 -179 -45 -288t-201 -163z" />
<glyph unicode="-" horiz-adv-x="1081" d="M125 578v235h842v-235h-842z" />
<glyph unicode="." horiz-adv-x="493" d="M102 147q0 43 17.5 76.5t45.5 51t62 25.5t68 -0.5t62 -25.5t45.5 -50.5t17.5 -76.5q0 -58 -33 -98.5t-79.5 -50t-93 0t-79.5 49.5t-33 99z" />
<glyph unicode="/" horiz-adv-x="882" d="M82 -2l450 1579h263l-453 -1579h-260z" />
<glyph unicode="0" horiz-adv-x="1142" d="M106 467v637q0 238 116 354.5t353 116.5q239 0 354 -114t115 -357v-637q0 -243 -115 -357t-354 -114t-354 114t-115 357zM389 481q0 -120 40.5 -177.5t145.5 -57.5t146 57.5t41 177.5v609q0 120 -41 177.5t-146 57.5t-145.5 -57.5t-40.5 -177.5v-609z" />
<glyph unicode="1" horiz-adv-x="866" d="M49 0v231h256v1106h-201v244h486v-1350h244v-231h-785z" />
<glyph unicode="2" horiz-adv-x="1095" d="M100 0v324q0 107 21.5 191.5t57.5 139.5t83.5 96.5t99.5 69t103.5 51t99 49t83.5 56t57.5 78.5t21.5 112q0 170 -164 170q-63 0 -98.5 -16.5t-54.5 -65t-19 -139.5h-282q0 240 107.5 355.5t348.5 115.5q114 0 200.5 -31.5t139 -88.5t79 -131.5t26.5 -164.5 q0 -108 -21.5 -190t-57.5 -133t-83.5 -87.5t-99.5 -59.5t-103.5 -43.5t-99 -45.5t-83.5 -59t-57.5 -90t-21.5 -133v-51h604v-279h-887z" />
<glyph unicode="3" horiz-adv-x="1097" d="M74 498h274q0 -112 43.5 -175t132.5 -63q99 0 147 50t48 169q0 51 -3 86.5t-14.5 79t-33 70t-61 45t-95.5 18.5h-152v92l242 457h-500v254h899v-29l-296 -585q301 -35 301 -486q0 -231 -123 -361t-357 -130q-452 0 -452 508z" />
<glyph unicode="4" horiz-adv-x="1161" d="M-4 514l622 1067h273v-1008h151v-256h-151v-317h-273v317h-589zM336 573h282v234l31 348z" />
<glyph unicode="5" horiz-adv-x="1105" d="M82 530h280q5 -155 45.5 -219.5t147.5 -64.5q105 0 145.5 57.5t40.5 177.5v99q0 120 -38.5 174.5t-143.5 54.5h-467v766h860v-266h-592v-244h199q239 0 352 -113.5t113 -357.5v-127q0 -243 -115 -357t-354 -114q-162 0 -263.5 51t-154.5 169t-55 314z" />
<glyph unicode="6" horiz-adv-x="1150" d="M113 451v266q0 264 132 493.5t339 366.5h340l8 -29q-133 -72 -240.5 -185t-163.5 -214q29 2 101 2q194 0 303.5 -107.5t109.5 -326.5v-266q0 -252 -107 -360.5t-357 -108.5q-251 0 -358 108t-107 361zM397 451q0 -116 41.5 -158.5t139.5 -42.5t139 42.5t41 158.5v266 q0 104 -41.5 142t-138.5 38q-98 0 -139.5 -38t-41.5 -142v-266z" />
<glyph unicode="7" horiz-adv-x="958" d="M27 1309v266h888v-96l-503 -1479h-303l450 1309h-532z" />
<glyph unicode="8" horiz-adv-x="1122" d="M82 451v110q0 117 38 193t126 129q-72 48 -107 132t-35 165q0 86 26 158t79 128t141 87.5t203 31.5t203 -31.5t140.5 -87.5t78.5 -128t26 -158q0 -80 -37.5 -168t-97.5 -129q79 -63 116.5 -137t37.5 -185v-110q0 -243 -115 -357t-354 -114t-354 114t-115 357zM365 465 q0 -120 40.5 -178t145.5 -58t145.5 58t40.5 178v82q0 116 -40.5 170.5t-145.5 54.5q-106 0 -146 -53.5t-40 -171.5v-82zM387 1174q0 -73 45 -126t121 -53h14q69 3 110.5 56t41.5 123q0 73 -44 117t-122 44t-122 -44t-44 -117z" />
<glyph unicode="9" horiz-adv-x="1150" d="M113 860v266q0 252 107.5 360.5t357.5 108.5q251 0 357.5 -108t106.5 -361v-266q0 -264 -132 -493.5t-339 -366.5h-340l-8 29q133 72 240.5 185t163.5 214q-29 -2 -101 -2q-194 0 -303.5 107.5t-109.5 326.5zM397 860q0 -104 41.5 -142t139.5 -38q97 0 138.5 38t41.5 142 v266q0 116 -41 158.5t-139 42.5t-139.5 -42.5t-41.5 -158.5v-266z" />
<glyph unicode=":" horiz-adv-x="509" d="M102 147q0 43 17.5 76.5t45.5 51t62 25.5t68 -0.5t62 -25.5t45.5 -50.5t17.5 -76.5q0 -58 -33 -98.5t-79.5 -50t-93 0t-79.5 49.5t-33 99zM102 848q0 43 17.5 76.5t45.5 51t62 25.5t68 -0.5t62 -25.5t45.5 -50.5t17.5 -76.5q0 -58 -33 -98.5t-79.5 -50t-93 0t-79.5 49.5 t-33 99z" />
<glyph unicode=";" horiz-adv-x="536" d="M29 -193q22 16 38 32.5t27 30.5t18 34.5t11 33.5t5.5 39t1.5 40t-0.5 47.5t-0.5 50.5h264q15 -178 -47 -287t-203 -164zM115 848q0 43 17.5 76.5t45.5 51t61.5 25.5t67.5 -0.5t62 -25.5t45.5 -50.5t17.5 -76.5q0 -42 -17.5 -75.5t-45.5 -50.5t-61.5 -25t-67.5 0t-62 25 t-45.5 50t-17.5 76z" />
<glyph unicode="&#x3c;" horiz-adv-x="860" d="M102 635v98l463 434l166 -178l-330 -305q55 -51 172.5 -156t163.5 -147l-172 -178z" />
<glyph unicode="=" horiz-adv-x="1138" d="M160 342v246h819v-246h-819zM160 784v246h819v-246h-819z" />
<glyph unicode="&#x3e;" horiz-adv-x="862" d="M127 371l332 303q-83 78 -328 313l166 176l463 -438v-96l-463 -430z" />
<glyph unicode="?" horiz-adv-x="1093" d="M61 1174q0 102 26 181t68.5 128t104 80.5t125 44.5t137.5 14q100 0 182.5 -25.5t148 -78.5t102 -143.5t36.5 -211.5v-123q0 -90 -19.5 -158.5t-50.5 -110t-69 -74t-76 -59t-69 -55.5t-50.5 -73.5t-19.5 -103.5h-283q0 81 20 147t51.5 109t70 78.5t76.5 65.5t69.5 60.5 t51.5 72.5t20 93v129q0 203 -187 203q-184 0 -184 -190h-281zM338 147q0 43 17.5 76.5t45.5 51t61.5 25.5t67.5 -0.5t62 -25.5t45.5 -50.5t17.5 -76.5q0 -42 -17.5 -75.5t-45.5 -50.5t-62 -25t-67.5 0t-61.5 25t-45.5 50t-17.5 76z" />
<glyph unicode="@" horiz-adv-x="1634" d="M127 469v602q0 252 121 361.5t405 109.5h328q286 0 412.5 -110.5t126.5 -360.5v-373q0 -102 -23.5 -171t-70 -106t-103 -52t-133.5 -15q-92 0 -147 37t-78 88q-20 -21 -32 -31.5t-36.5 -27t-56 -24t-70.5 -7.5q-118 0 -184 65.5t-66 188.5v246q0 118 85.5 185t205.5 67 h289v-436q0 -26 0.5 -37.5t2 -32.5t6 -30.5t11.5 -21t19.5 -16t29.5 -4.5q41 0 54.5 32t13.5 105v377q0 61 -9.5 98t-36.5 65t-77.5 40t-132.5 12h-328q-75 0 -124 -15t-74.5 -47t-35 -72t-9.5 -101v-574q0 -61 9.5 -101t35 -72t74.5 -47t124 -15h369v-250h-369 q-279 0 -402.5 112.5t-123.5 358.5zM729 705q0 -95 84 -95q80 0 80 107v205h-82q-40 0 -61 -22.5t-21 -63.5v-131z" />
<glyph unicode="A" horiz-adv-x="1183" d="M18 0l437 1575h280l430 -1575h-291l-79 279h-404l-82 -279h-291zM461 555h262l-131 584z" />
<glyph unicode="B" horiz-adv-x="1275" d="M123 0v1577h469q212 0 338.5 -116t126.5 -302q0 -85 -29 -151.5t-115 -124.5q128 -27 208.5 -131.5t80.5 -262.5q0 -262 -134.5 -375.5t-424.5 -113.5h-520zM403 256h244q81 0 131.5 13.5t76.5 44.5t35 69.5t9 99.5q0 123 -54 175.5t-202 52.5h-240v-455zM406 971h188 q84 0 128 52t44 132q0 73 -40 126.5t-134 53.5h-186v-364z" />
<glyph unicode="C" horiz-adv-x="1275" d="M121 467v641q0 252 121 361.5t405 109.5q287 0 413 -113.5t126 -375.5h-283q0 63 -9.5 103.5t-36 73t-78 47.5t-132.5 15q-75 0 -124 -15t-75 -47t-35.5 -72t-9.5 -101v-613q0 -61 9.5 -101t35.5 -72t75 -47t124 -15q146 0 201 58t55 183h283q0 -259 -128.5 -375 t-410.5 -116q-279 0 -402.5 112.5t-123.5 358.5z" />
<glyph unicode="D" horiz-adv-x="1310" d="M145 0v1577h519q286 0 412 -110.5t126 -360.5v-643q0 -244 -128 -353.5t-410 -109.5h-519zM426 256h238q148 0 202 51.5t54 169.5v615q0 61 -9 99.5t-35 69.5t-76.5 44.5t-131.5 13.5h-242v-1063z" />
<glyph unicode="E" d="M143 -2v1579h908v-246h-625v-405h532v-254h-532v-416h653v-258h-936z" />
<glyph unicode="F" horiz-adv-x="1130" d="M141 -2v1579h924v-258h-643v-393h545v-256h-545v-672h-281z" />
<glyph unicode="G" horiz-adv-x="1292" d="M117 481v633q0 245 122 358t404 113q287 0 413 -109t126 -362h-283q0 60 -9.5 97.5t-36.5 67.5t-78 43t-132 13q-75 0 -124.5 -16t-75 -49t-35 -72.5t-9.5 -97.5v-619q0 -61 9.5 -101t35.5 -72t75 -47t124 -15q149 0 213 60t64 181v154h-269v256h531v-410 q0 -259 -128.5 -377t-410.5 -118q-279 0 -402.5 116t-123.5 373z" />
<glyph unicode="H" horiz-adv-x="1341" d="M143 -2v1579h285v-670h492v670h280v-1577h-280v649h-492v-651h-285z" />
<glyph unicode="I" horiz-adv-x="571" d="M143 -2v1577h285v-1577h-285z" />
<glyph unicode="J" horiz-adv-x="1077" d="M16 475h283q0 -120 40.5 -177.5t145.5 -57.5t146 57.5t41 177.5v1102h282v-1116q0 -243 -115 -357t-354 -114q-237 0 -353 120t-116 365z" />
<glyph unicode="K" horiz-adv-x="1290" d="M133 0v1577h283v-664h76l413 664h330l-514 -789l561 -788h-344l-444 633h-80v-633h-281z" />
<glyph unicode="L" horiz-adv-x="1085" d="M143 0v1577h285v-1319h608v-258h-893z" />
<glyph unicode="M" horiz-adv-x="1474" d="M143 0v1577h273l321 -698l324 698h272v-1577h-282v557l32 451l-313 -635h-63l-314 635l33 -451v-557h-283z" />
<glyph unicode="N" horiz-adv-x="1275" d="M141 0v1575h281l463 -1038l-31 665v373h281v-1575h-275l-463 999l25 -598v-401h-281z" />
<glyph unicode="O" horiz-adv-x="1312" d="M121 457v667q0 252 121 361.5t405 109.5q286 0 412.5 -110.5t126.5 -360.5v-667q0 -245 -129 -358t-410 -113q-279 0 -402.5 112.5t-123.5 358.5zM403 471q0 -61 9.5 -101t35.5 -72t75 -47t124 -15q76 0 126.5 15t78.5 46.5t39.5 73t11.5 100.5v639q0 59 -9.5 98 t-36 72.5t-78.5 49.5t-132 16q-75 0 -124.5 -16t-75 -49t-35 -73t-9.5 -98v-639z" />
<glyph unicode="P" horiz-adv-x="1185" d="M143 0v1577h398q289 0 424 -111.5t135 -359.5v-145q0 -243 -138.5 -360.5t-420.5 -117.5h-109v-483h-289zM430 756h111q150 0 211 51.5t61 167.5v117q0 80 -21 127t-80.5 73.5t-166.5 26.5h-115v-563z" />
<glyph unicode="Q" horiz-adv-x="1308" d="M121 467v653q0 252 121 363.5t405 111.5q285 0 412 -112t127 -363v-639q0 -367 -271 -452q2 -20 3.5 -34.5t5.5 -31t10 -28t15.5 -23.5t22 -19.5t30.5 -14t40.5 -9t52 -2.5t64.5 4v-225q-65 -9 -122 -9q-156 0 -251 67q-130 91 -139 292q-279 0 -402.5 112.5 t-123.5 358.5zM403 481q0 -61 9.5 -101t35.5 -72t75 -47t124 -15q76 0 126.5 15t78.5 46.5t39.5 73t11.5 100.5v625q0 61 -9.5 100.5t-36 72t-78.5 47.5t-132 15q-75 0 -124 -15t-75 -47t-35.5 -72t-9.5 -101v-625z" />
<glyph unicode="R" horiz-adv-x="1216" d="M143 0v1577h398q288 0 423.5 -112.5t135.5 -360.5v-82q0 -175 -65 -275.5t-208 -146.5l347 -600h-330l-314 555h-104v-555h-283zM424 815h117q149 0 205.5 52t56.5 169v54q0 61 -9.5 99.5t-37 69.5t-79 44.5t-132.5 13.5h-121v-502z" />
<glyph unicode="S" horiz-adv-x="1236" d="M90 428h285q5 -96 57.5 -141t181.5 -45t188.5 59t59.5 191q0 34 -10.5 61.5t-26 46t-43 34t-51 24t-62.5 16t-63.5 10.5t-68 8t-64.5 8q-58 8 -107 23t-98.5 47t-84 78.5t-56 120.5t-21.5 168q0 220 130 334t374 114q111 0 195.5 -21.5t150.5 -70t105 -130.5t49 -198 h-285q-6 96 -57 134t-158 38q-119 0 -169 -43.5t-50 -154.5q0 -37 8 -65t19.5 -47.5t35.5 -34.5t45 -23.5t59 -15.5t66 -11t78.5 -10.5t85.5 -11.5q61 -10 108 -24.5t96 -45t80.5 -73.5t52 -113.5t20.5 -161.5q0 -274 -126.5 -396t-410.5 -122q-518 0 -518 444z" />
<glyph unicode="T" horiz-adv-x="966" d="M16 1319v252h934v-252h-325v-1319h-281v1319h-328z" />
<glyph unicode="U" horiz-adv-x="1304" d="M123 467v1108h283v-1094q0 -245 233 -245q123 0 185.5 64.5t62.5 180.5v1094h282v-1108q0 -240 -138 -360.5t-392 -120.5q-252 0 -384 120t-132 361z" />
<glyph unicode="V" horiz-adv-x="1181" d="M18 1575h289l137 -481l148 -738l145 742l137 477h289l-424 -1577h-295z" />
<glyph unicode="W" horiz-adv-x="1896" d="M18 1577h291l156 -545l113 -643l258 1137h217l278 -1137l92 643l156 545h291l-395 -1579h-299l-232 852l-211 -852h-297z" />
<glyph unicode="X" horiz-adv-x="1142" d="M18 0l365 797l-336 780h307l105 -256l112 -336l111 330l106 262h308l-336 -780l364 -797h-305l-123 262l-125 342l-133 -360l-114 -244h-306z" />
<glyph unicode="Y" horiz-adv-x="1069" d="M-4 1577h305l123 -291l115 -338l114 346l117 283h305l-397 -918v-661h-281v661z" />
<glyph unicode="Z" horiz-adv-x="1079" d="M29 0l616 1325h-530v252h938l-607 -1327h572v-250h-989z" />
<glyph unicode="[" horiz-adv-x="753" d="M186 -303v1923h500v-274h-223v-1375h223v-274h-500z" />
<glyph unicode="\" horiz-adv-x="911" d="M92 1575h291l451 -1577h-289z" />
<glyph unicode="]" horiz-adv-x="772" d="M86 -29h221v1375h-221v274h500v-1923h-500v274z" />
<glyph unicode="^" horiz-adv-x="1320" d="M111 889l448 674h160l461 -674v-12h-285l-256 401l-258 -401h-268z" />
<glyph unicode="_" horiz-adv-x="1073" d="M72 -6v280h934v-280h-934z" />
<glyph unicode="`" horiz-adv-x="501" d="M0 1559h283l116 -279h-243z" />
<glyph unicode="a" horiz-adv-x="1112" d="M74 326q0 373 529 372q59 0 124 -4q0 143 -38.5 207t-143.5 64q-93 0 -130 -38q-36 -37 -36 -129v-5h-268q-1 23 -1 45q0 185 98 275q110 101 335 101q234 0 343 -116.5t109 -354.5v-743h-229l-27 139q-52 -72 -135 -113.5t-182 -41.5q-155 0 -251.5 88.5t-96.5 253.5z M340 348q0 -106 166 -106q59 0 101.5 19.5t66.5 55.5t36 75t17 89q-72 7 -130 7q-105 0 -165 -24q-92 -38 -92 -116z" />
<glyph unicode="b" horiz-adv-x="1159" d="M113 467v1110h280v-465q43 54 114.5 80.5t149.5 26.5q192 0 291 -113t99 -313v-324q0 -247 -117.5 -361t-351.5 -114t-349.5 113.5t-115.5 359.5zM393 473q0 -115 41 -172t144 -57q188 0 188 231v285q0 107 -45.5 154t-136.5 49q-92 0 -141.5 -50.5t-49.5 -150.5v-289z " />
<glyph unicode="c" horiz-adv-x="1132" d="M102 457v270q0 485 478 485q240 0 350 -106t110 -348h-266q0 106 -43 155.5t-145 49.5q-112 0 -156.5 -58.5t-44.5 -177.5v-262q0 -120 40.5 -178t145.5 -58q109 0 155 49t48 158h266q0 -241 -114 -348.5t-355 -107.5q-240 0 -354.5 115t-114.5 362z" />
<glyph unicode="d" horiz-adv-x="1202" d="M111 461v311q0 216 103 333.5t302 117.5q185 0 248 -107v461h280v-1577h-231l-20 133q-36 -65 -110 -102t-175 -37q-188 0 -292.5 112.5t-104.5 354.5zM391 475q0 -125 47 -178t135 -53q99 0 145 65t46 176v277q0 201 -182 201q-191 0 -191 -203v-285z" />
<glyph unicode="e" d="M109 467v274q0 230 117 350.5t352 120.5q239 0 354 -114t115 -357v-239h-656v-31q0 -71 13 -118t40 -71t59 -33t79 -9q188 0 188 131h277q0 -190 -115.5 -282.5t-353.5 -92.5q-239 0 -354 114t-115 357zM391 733h383q0 125 -37.5 180.5t-150.5 55.5q-61 0 -100.5 -15.5 t-59.5 -49t-27.5 -73t-7.5 -98.5z" />
<glyph unicode="f" horiz-adv-x="743" d="M121 -2v1169q0 104 37.5 190t108.5 146t181 85q66 16 141 16q51 0 105 -7v-247q-42 7 -78 7q-83 0 -138 -37q-77 -53 -77 -157v-63h261v-258h-261v-844h-280z" />
<glyph unicode="g" horiz-adv-x="1124" d="M102 446v302q0 466 394 466q198 0 274 -139l21 133h231v-1239q0 -232 -117 -347.5t-340 -115.5q-221 0 -328.5 95t-107.5 288h268q0 -143 168 -143q107 0 151 54.5t44 170.5v146q-80 -123 -256 -123q-194 0 -298 112t-104 340zM383 481q0 -126 42.5 -182.5t131.5 -56.5 q103 0 145.5 61.5t42.5 183.5v236q0 242 -184 242q-88 0 -133 -53.5t-45 -178.5v-252z" />
<glyph unicode="h" horiz-adv-x="1142" d="M113 0v1577h280v-465q86 107 254 107q191 0 287 -112.5t96 -313.5v-793h-280v760q0 107 -43.5 154t-133.5 49q-180 0 -180 -201v-762h-280z" />
<glyph unicode="i" horiz-adv-x="573" d="M129 1452q0 43 17.5 76.5t45.5 51t62 25.5q16 4 32 4q17 -1 35 -5q34 -8 62 -25t45.5 -50.5t17.5 -76.5q0 -42 -17.5 -75.5t-45.5 -50.5q-27 -17 -61 -25q-17 -4 -34 -4t-34 4q-34 8 -62 25t-45.5 50t-17.5 76zM145 -2v1184h281v-1184h-281z" />
<glyph unicode="j" horiz-adv-x="585" d="M2 -145q49 0 75.5 5.5t49.5 26t31 61.5t8 111v1133h280v-1126q0 -90 -10 -157.5t-33 -118.5t-56.5 -84t-84.5 -53.5t-113.5 -29t-146.5 -8.5v240zM150 1452q0 43 17.5 76.5t45.5 51t61 25.5q17 4 33 4q17 0 35 -5q34 -8 62 -25t45.5 -50.5t17.5 -76.5q0 -42 -17.5 -75.5 t-45.5 -50.5t-62 -25q-16 -4 -33 -4t-34 4q-34 8 -62 25t-45.5 50t-17.5 76z" />
<glyph unicode="k" horiz-adv-x="1134" d="M113 0v1581h280v-803h76l299 430h315l-387 -542l428 -666h-315l-336 524h-80v-524h-280z" />
<glyph unicode="l" horiz-adv-x="626" d="M143 442v1137h281v-1133q0 -103 27.5 -139.5t113.5 -36.5v-270q-167 0 -256 39t-127.5 133t-38.5 270z" />
<glyph unicode="m" horiz-adv-x="1890" d="M152 0v1208h243l19 -123q50 65 126 99q69 31 144 30h14q221 0 297 -153q48 72 139 114t205 42q193 0 296.5 -117t103.5 -357v-743h-281v743q0 115 -45 167.5t-135 52.5q-88 0 -138 -48.5t-53 -169.5v-745h-280v743q0 115 -45 167.5t-135 52.5q-89 0 -142 -49.5 t-53 -159.5v-754h-280z" />
<glyph unicode="n" horiz-adv-x="1239" d="M162 0v1208h244l14 -123q55 65 130 98.5t155 33.5h9q58 -1 108 -13q54 -14 106.5 -47t89 -85.5t58.5 -136t22 -190.5v-745h-279v743q0 114 -46 167t-136 53q-89 0 -142 -49.5t-53 -159.5v-754h-280z" />
<glyph unicode="o" horiz-adv-x="1142" d="M102 451v290q0 238 116 354.5t353 116.5q239 0 354 -114t115 -357v-290q0 -243 -115 -357t-354 -114t-354 114t-115 357zM385 465q0 -120 40.5 -178t145.5 -58t146 58t41 178v262q0 120 -41 178t-146 58t-145.5 -58t-40.5 -178v-262z" />
<glyph unicode="p" horiz-adv-x="1193" d="M135 -367v1575h232l20 -131q36 66 110 103t175 37q188 0 292.5 -112.5t104.5 -354.5v-312q0 -216 -103 -333t-302 -117q-186 0 -248 106v-461h-281zM416 449q0 -201 182 -201q94 0 142 48.5t48 154.5v284q0 125 -47 178.5t-135 53.5q-99 0 -144.5 -65t-45.5 -177v-276z " />
<glyph unicode="q" horiz-adv-x="1163" d="M109 420v323q0 247 117.5 361.5t351.5 114.5t349 -113.5t115 -360.5v-1110h-280v465q-43 -54 -114.5 -80t-149.5 -26q-192 0 -290.5 113t-98.5 313zM389 453q0 -107 45.5 -154t136.5 -49q92 0 141.5 50.5t49.5 150.5v288q0 116 -41 173t-143 57q-189 0 -189 -232v-284z " />
<glyph unicode="r" horiz-adv-x="788" d="M123 -2v1210h258l12 -127q41 67 135 109q66 29 137 29q31 0 64 -5v-296q-36 5 -69 5q-98 0 -166 -44q-92 -59 -91 -189v-692h-280z" />
<glyph unicode="s" horiz-adv-x="1067" d="M78 373h284q5 -66 47.5 -99.5t139.5 -33.5q80 0 125 37t45 85q0 17 -4 30.5t-15 24t-21 18.5t-29.5 14.5t-33 10.5t-40 8t-42 6t-47 5.5t-47.5 5.5q-346 45 -346 336q0 132 60.5 222t161 130.5t235.5 40.5q214 0 326 -107t112 -278h-274q0 66 -45 100t-117 34 q-83 0 -128.5 -32.5t-45.5 -94.5q0 -28 7.5 -48.5t24.5 -33.5t34.5 -21t48.5 -12.5t54.5 -7t64.5 -5.5t67 -6q64 -7 119.5 -29.5t102.5 -60.5t74.5 -100t27.5 -139q0 -127 -63.5 -214.5t-166.5 -126t-237 -38.5q-214 0 -336.5 102t-122.5 277z" />
<glyph unicode="t" horiz-adv-x="684" d="M131 442v975l281 31v-236h204v-256h-204v-510q0 -57 6.5 -92t27 -65.5t64.5 -40.5q24 -6 55 -5q25 0 56 3v-246q-60 -6 -111 -6q-180 0 -268 78q-112 101 -111 370z" />
<glyph unicode="u" horiz-adv-x="1220" d="M135 465v745h279v-743q0 -114 46 -166.5t136 -52.5q89 0 142 49.5t53 159.5v753h286v-1208h-250l-14 123q-55 -65 -130 -98t-155 -33h-9q-59 0 -109 12q-54 13 -106 47t-88.5 86t-58.5 135.5t-22 190.5z" />
<glyph unicode="v" horiz-adv-x="999" d="M6 1208h293l109 -362q58 -233 94 -508q47 316 94 508l106 362h293l-370 -1210h-248z" />
<glyph unicode="w" horiz-adv-x="1585" d="M16 1208h291l107 -362q46 -183 88 -508q2 16 12.5 106.5t26 178.5t41.5 202q14 59 55 197t55 186h209l92 -387q52 -219 90 -483q39 300 91 508l104 362h289l-350 -1210h-269l-71 264l-84 426l-84 -430l-72 -260h-266z" />
<glyph unicode="x" horiz-adv-x="1079" d="M18 0l365 614l-350 594h295l110 -186q22 -37 58 -110.5t45 -100.5q12 33 47.5 106t58.5 111l107 180h290l-350 -592l369 -616h-299l-107 180q-52 81 -118 238q-18 -45 -58.5 -124.5t-64.5 -117.5l-105 -176h-293z" />
<glyph unicode="y" horiz-adv-x="1044" d="M31 1208h293l108 -362q58 -233 94 -508q45 306 95 508l106 362h293l-358 -1194h2l-66 -233q-38 -133 -106 -195q-65 -61 -152 -61h-6q-90 2 -207 47l43 207q6 -1 26.5 -6t28 -6.5t25 -3.5t25.5 -0.5t21 6t20.5 13t16 23t13.5 33.5l47 170z" />
<glyph unicode="z" horiz-adv-x="1044" d="M63 0v33l523 928h-469v245h887v-35l-521 -909h521v-262h-941z" />
<glyph unicode="{" horiz-adv-x="655" d="M41 639v217q44 0 73.5 12.5t43.5 35t19 44.5t5 51v340q-5 71 8.5 129t42 98t70 66.5t92 37.5t108 9t118.5 -18v-213q-11 1 -35.5 5t-35 5t-30.5 1t-29 -4t-22 -12.5t-18.5 -22.5t-10 -36t-4.5 -51v-334v-28.5v-29t-0.5 -26.5t-2 -28t-3.5 -25t-5.5 -26t-9 -23t-12 -23.5 t-16 -20t-20.5 -19.5q11 -9 20.5 -19.5t16.5 -20t12.5 -24t9 -23.5t6 -26.5t4 -25.5t2 -28.5t0.5 -27v-29.5v-28v-408q0 -66 22.5 -95.5t58 -28.5t81.5 6q15 2 23 3v-213q-75 -19 -139.5 -21.5t-121 16t-96 58t-62 108t-22.5 161.5v412q0 29 -5 51.5t-19 45t-43.5 34.5 t-73.5 12z" />
<glyph unicode="|" horiz-adv-x="563" d="M139 -385v1966h285v-1966h-285z" />
<glyph unicode="}" horiz-adv-x="690" d="M55 -25q8 -1 23 -3q46 -5 81.5 -6t58 28.5t22.5 95.5v408v28v29.5t0.5 27t2 28.5t4 25.5t6 26.5t9 23.5t12.5 24t16.5 20t20.5 19.5q-12 10 -22 20.5t-17 25t-12.5 24t-8.5 29t-5 26.5t-3 31t-1 29v33v31v334q0 29 -4.5 51t-10 36t-18.5 22.5t-22 12.5t-29 4t-30.5 -1 t-35 -5t-35.5 -5v213q61 16 118.5 18t108 -9t92 -37.5t70 -66.5t42 -98t8.5 -129v-340q0 -29 5 -51t19 -44.5t43.5 -35t73.5 -12.5v-217q-44 0 -73.5 -12t-43.5 -34.5t-19 -45t-5 -51.5v-412q0 -93 -22.5 -161.5t-62 -108t-96 -58t-121 -16t-139.5 21.5v213z" />
<glyph unicode="~" horiz-adv-x="1323" d="M109 535q43 130 129 208t188 78q70 0 135 -33h-2l240 -116q27 -15 55 -15q51 0 109 134l204 -80q-47 -132 -125.5 -207.5t-177.5 -75.5q-74 0 -147 33l-242 121q-25 10 -59 10q-59 0 -113 -139z" />
<glyph unicode="&#xa1;" horiz-adv-x="514" d="M100 1042q0 58 33 98.5t79.5 50t93 0t79.5 -49.5t33 -99q0 -43 -17.5 -76.5t-45.5 -51t-62 -25.5t-68 0.5t-62 25.5t-45.5 50.5t-17.5 76.5zM106 -387l21 1175h258v-1175h-279z" />
<glyph unicode="&#xa2;" horiz-adv-x="1101" d="M92 451v290q0 194 84 309.5t248 147.5v176h287v-176q319 -68 319 -457h-272q0 108 -44.5 165t-144.5 57q-111 0 -152.5 -57.5t-41.5 -178.5v-262q0 -120 40.5 -178t145.5 -58t150 56.5t47 165.5h272q0 -392 -321 -457v-162h-287v160q-166 31 -248 144t-82 315z" />
<glyph unicode="&#xa3;" horiz-adv-x="1107" d="M35 0v256h180v385h-180v256h180v229q0 205 109 321t311 116q409 0 401 -433h-254q0 96 -41 132t-106 36q-64 0 -105 -42t-41 -123v-236h359v-256h-359v-387h551v-254h-1005z" />
<glyph unicode="&#xa5;" horiz-adv-x="1050" d="M-16 1577h305l123 -291l114 -338l115 346l117 283h305l-311 -717h135v-225h-221v-84h221v-225h-221v-328h-281v328h-223v225h223v84h-223v225h135z" />
<glyph unicode="&#xa7;" horiz-adv-x="1069" d="M68 129h284q0 -80 52.5 -123t152.5 -43q79 0 119.5 34t40.5 83q0 88 -67.5 123t-235.5 41q-69 2 -128 20.5t-109.5 54t-79.5 98.5t-29 146q0 72 41 138.5t102 103.5q-56 25 -99.5 83t-43.5 132q0 132 62 226.5t164.5 140t233.5 45.5q216 0 339.5 -107t123.5 -289h-284 q0 81 -40.5 113.5t-134.5 32.5q-83 0 -131.5 -32t-48.5 -95q0 -31 8.5 -54t30.5 -38t42 -24t62 -14.5t70 -8t86 -5.5q56 -3 104.5 -13.5t94.5 -34t78.5 -58t52.5 -88t20 -121.5q0 -155 -176 -240q176 -94 176 -252q0 -103 -35.5 -180t-100.5 -123t-147 -68t-183 -22 q-216 0 -341.5 112t-125.5 306zM356 578q0 -46 37 -78.5t90 -41t106.5 -2.5t90.5 37t37 78q0 43 -37 74t-90.5 39t-106.5 2.5t-90 -35t-37 -73.5z" />
<glyph unicode="&#xa8;" horiz-adv-x="911" d="M94 1479q0 53 31 90t75 46.5t88.5 1.5t75.5 -45t31 -93q0 -51 -31 -87.5t-75 -46t-88.5 -2t-75.5 44t-31 91.5zM547 1479q0 53 31 90t75.5 46.5t88.5 1.5t75 -45t31 -93q0 -51 -31 -87.5t-75 -46t-88.5 -2t-75.5 44t-31 91.5z" />
<glyph unicode="&#xa9;" horiz-adv-x="1724" d="M106 762q0 113 30.5 220.5t94 203t153 166.5t217.5 112t278 39l-33 -2q140 1 260 -37.5t205.5 -106.5t146 -160t90 -199t29.5 -222q0 -124 -28.5 -235t-87.5 -206t-144.5 -164.5t-206 -108.5t-264.5 -39q-180 0 -322.5 57t-233 157.5t-137.5 234t-47 290.5zM305 758 q0 -119 34 -219.5t100 -176t170.5 -118.5t236.5 -43t234.5 42.5t167 119t97.5 180.5t33 231q0 159 -59.5 280.5t-181 193t-291.5 71.5q-176 0 -300 -74t-182.5 -198.5t-58.5 -288.5zM510 657v224q0 165 88 243t246 78q153 0 236 -78t89 -250l-196 -2q-3 87 -33.5 116.5 t-95.5 29.5q-71 0 -102 -27t-31 -110v-224q0 -86 32 -117.5t101 -31.5q70 0 99.5 31t29.5 127h194q-1 -186 -76 -264t-247 -78q-173 0 -253.5 78.5t-80.5 254.5z" />
<glyph unicode="&#xaa;" horiz-adv-x="919" d="M72 1067v147q0 184 100.5 269.5t271.5 85.5q367 0 367 -355v-487h-186l-11 66q-71 -68 -192 -68q-350 0 -350 342zM102 406v208h707v-208h-707zM287 1083q0 -86 33.5 -120.5t101.5 -34.5q89 0 132.5 43t43.5 159v84q0 91 -40.5 124.5t-113.5 33.5q-157 0 -157 -158v-131z " />
<glyph unicode="&#xab;" horiz-adv-x="1056" d="M43 680l289 461h280l-286 -463l286 -461h-280zM430 680l289 461h280l-286 -463l286 -461h-280z" />
<glyph unicode="&#xac;" horiz-adv-x="1026" d="M117 584v237h796v-465h-243v228h-553z" />
<glyph unicode="&#xad;" horiz-adv-x="1081" d="M125 578v235h842v-235h-842z" />
<glyph unicode="&#xae;" horiz-adv-x="1716" d="M88 719q0 157 51 295t145 242t238 164.5t320 60.5q177 0 321.5 -60.5t238 -165t143.5 -242t50 -294.5q0 -156 -50.5 -293.5t-143.5 -242.5t-237.5 -165.5t-321.5 -60.5q-176 0 -320 60.5t-238 165t-145 242.5t-51 294zM299 723q0 -164 62 -294t187 -208t294 -78t294 78 t187.5 207.5t62.5 292.5q0 164 -62.5 294t-187.5 207.5t-294 77.5t-293.5 -77.5t-186.5 -206.5t-63 -293zM569 307v848h287q69 0 121.5 -12.5t96.5 -42.5t67.5 -87.5t23.5 -140.5v-16q0 -108 -34 -171.5t-113 -90.5l166 -285h-228l-122 248h-70v-250h-195zM764 737h92 q58 0 83.5 25t25.5 94v16q0 62 -23 79t-86 20h-92v-234z" />
<glyph unicode="&#xaf;" horiz-adv-x="788" d="M137 1350v237h520v-237h-520z" />
<glyph unicode="&#xb0;" horiz-adv-x="667" d="M38 1288.5q-4 45.5 1.5 90.5t29 86t57 72.5t85 50t111.5 18.5t110.5 -18.5t83.5 -50t56 -72.5t28.5 -86t1 -90.5t-27.5 -86.5t-55.5 -72.5t-83 -50t-111.5 -18.5q-63 0 -115.5 18.5t-86 50t-57 72.5t-27.5 86.5zM207.5 1299.5q6.5 -32.5 36.5 -55.5t75 -23q53 0 83 35 t29.5 76.5t-30.5 76.5t-82 35q-43 0 -73 -23t-37.5 -56t-1 -65.5z" />
<glyph unicode="&#xb1;" horiz-adv-x="1017" d="M100 659v234h295v305h252v-305h295v-234h-295v-303h-252v303h-295zM104 -8v246h822v-246h-822z" />
<glyph unicode="&#xb4;" horiz-adv-x="501" d="M70 1280l116 279h283l-156 -279h-243z" />
<glyph unicode="&#xb5;" horiz-adv-x="1073" d="M74 -416v1606h288v-744q0 -210 179 -210q83 0 124.5 53t41.5 180v719h286v-1188h-237l-23 82q-36 -66 -111 -93t-152 -6t-118 83v-482h-278z" />
<glyph unicode="&#xb6;" horiz-adv-x="1417" d="M41 1038q1 85 14.5 159.5t47 146.5t85 123.5t134 82.5t188.5 31h850v-274h-164v-1700h-285v1700h-213v-1700h-288v882q-88 12 -155 50.5t-107 91t-65 123t-34 138.5t-8 146z" />
<glyph unicode="&#xb7;" horiz-adv-x="436" d="M45 672q0 45 19 81t50 55t68 28t74 1t68 -26.5t50 -55t19 -83.5q0 -39 -15 -71t-39.5 -52.5t-55.5 -32t-64 -12t-64 9.5t-55.5 30t-39.5 53t-15 75z" />
<glyph unicode="&#xb8;" horiz-adv-x="602" d="M-23 -367l93 144q26 -27 74.5 -43.5t97 -6t63.5 55.5q10 46 -47 78t-147 35l67 221h213l-39 -119q63 -4 106.5 -28.5t62 -61t24 -81.5t-7.5 -91q-16 -70 -64.5 -121t-113 -72t-134 -21t-136 29t-112.5 82z" />
<glyph unicode="&#xba;" horiz-adv-x="894" d="M72 1217q0 165 103 260.5t259 95.5q157 0 260 -95t103 -259q0 -165 -103.5 -263t-257.5 -98q-156 0 -260 96.5t-104 262.5zM109 567v203h657v-203h-657zM279 1219q0 -76 43 -123t114 -47t115.5 46.5t44.5 121.5q0 76 -47 125t-115 49q-66 0 -110.5 -48.5t-44.5 -123.5z " />
<glyph unicode="&#xbb;" horiz-adv-x="1056" d="M53 217l287 461l-287 463h281l289 -461l-289 -463h-281zM440 217l287 461l-287 463h281l289 -461l-289 -463h-281z" />
<glyph unicode="&#xbf;" horiz-adv-x="1046" d="M59 39v123q0 90 19.5 158.5t51 110t69 74t75.5 59.5t69.5 56t51 73.5t19.5 103.5h282q0 -81 -19.5 -147t-51.5 -109t-70 -78.5t-76 -65.5t-70 -61t-51.5 -73t-19.5 -93v-129q0 -203 186 -203q185 0 185 191h280q0 -102 -26 -181t-68.5 -128t-104 -81t-125 -45t-137.5 -14 q-100 0 -182.5 25.5t-148 78.5t-102 143.5t-36.5 211.5zM395 1055q0 58 33 98.5t79.5 50t93 0t79.5 -49.5t33 -99q0 -43 -17.5 -76.5t-45.5 -51t-62 -25.5t-68 0.5t-62 25.5t-45.5 50.5t-17.5 76.5z" />
<glyph unicode="&#xc0;" horiz-adv-x="1183" d="M18 0l437 1575h280l430 -1575h-291l-79 279h-404l-82 -279h-291zM307 1942h283l117 -279h-244zM461 555h262l-131 584z" />
<glyph unicode="&#xc1;" horiz-adv-x="1183" d="M18 0l437 1575h280l430 -1575h-291l-79 279h-404l-82 -279h-291zM457 1665l116 279h283l-156 -279h-243zM461 555h262l-131 584z" />
<glyph unicode="&#xc2;" horiz-adv-x="1183" d="M18 0l437 1575h280l430 -1575h-291l-79 279h-404l-82 -279h-291zM227 1675v21l291 264h131l289 -264v-21h-262l-92 92l-97 -92h-260zM461 555h262l-131 584z" />
<glyph unicode="&#xc3;" horiz-adv-x="1183" d="M18 0l437 1575h280l430 -1575h-291l-79 279h-404l-82 -279h-291zM264 1767q33 106 121.5 160.5t187.5 9.5l101 -49q62 -28 94 54l172 -72q-14 -53 -39 -96.5t-63.5 -75.5t-86.5 -38.5t-108 15.5l-111 54q-13 6 -30 8t-38 -12.5t-34 -43.5zM461 555h262l-131 584z" />
<glyph unicode="&#xc4;" horiz-adv-x="1183" d="M18 0l437 1575h280l430 -1575h-291l-79 279h-404l-82 -279h-291zM203 1802q0 53 31 90t75.5 46.5t88.5 1.5t75 -45t31 -93q0 -51 -31 -87.5t-75 -46t-88.5 -2t-75.5 44t-31 91.5zM461 555h262l-131 584zM655 1802q0 53 31 90t75.5 46.5t88.5 1.5t75 -45t31 -93 q0 -51 -31 -87.5t-75 -46t-88.5 -2t-75.5 44t-31 91.5z" />
<glyph unicode="&#xc5;" horiz-adv-x="1183" d="M18 0l416 1505q-93 69 -90 195q0 113 72.5 177.5t175.5 64.5q106 0 178 -63.5t72 -176.5q0 -126 -90 -193l413 -1509h-291l-79 279h-404l-82 -279h-291zM461 555h262l-131 584zM503 1700q0 -33 24 -60.5t65 -27.5q44 0 68.5 27.5t24 60.5t-25.5 60.5t-67 27.5 q-41 0 -65 -27.5t-24 -60.5z" />
<glyph unicode="&#xc6;" horiz-adv-x="1542" d="M6 0l541 1581h895v-246h-449v-407h406v-254h-406v-416h477v-258h-753v297h-301l-101 -297h-309zM485 555h232v748z" />
<glyph unicode="&#xc7;" horiz-adv-x="1275" d="M121 467v641q0 252 121 361.5t405 109.5q287 0 413 -113.5t126 -375.5h-283q0 63 -9.5 103.5t-36 73t-78 47.5t-132.5 15q-75 0 -124 -15t-75 -47t-35.5 -72t-9.5 -101v-613q0 -61 9.5 -101t35.5 -72t75 -47t124 -15q146 0 201 58t55 183h283q0 -232 -102.5 -348.5 t-325.5 -138.5l-27 -78q63 -4 106.5 -26t62 -55t23.5 -74.5t-8 -83.5q-21 -80 -90 -130.5t-152.5 -62t-171.5 13t-145 84.5l93 131q26 -24 74.5 -39t97 -5.5t63.5 51.5q10 42 -47.5 71t-147.5 31l58 172q-224 19 -325 131.5t-101 335.5z" />
<glyph unicode="&#xc8;" d="M143 -2v1579h908v-246h-625v-405h532v-254h-532v-416h653v-258h-936zM311 1954h283l117 -279h-244z" />
<glyph unicode="&#xc9;" d="M143 -2v1579h908v-246h-625v-405h532v-254h-532v-416h653v-258h-936zM434 1677l117 279h283l-156 -279h-244z" />
<glyph unicode="&#xca;" d="M143 -2v1579h908v-246h-625v-405h532v-254h-532v-416h653v-258h-936zM205 1677v21l291 264h131l288 -264v-21h-262l-92 92l-96 -92h-260z" />
<glyph unicode="&#xcb;" d="M143 -2v1579h908v-246h-625v-405h532v-254h-532v-416h653v-258h-936zM215 1812q0 51 30 87t73.5 45t86.5 1t73 -43.5t30 -89.5q0 -35 -16 -63.5t-42 -44t-57 -23t-62.5 -1t-57.5 21t-42 43.5t-16 67zM653 1812q0 51 30 87t72.5 45t85.5 1t73 -43.5t30 -89.5 q0 -49 -30 -83.5t-72.5 -43.5t-85.5 -2t-73 42t-30 87z" />
<glyph unicode="&#xcc;" horiz-adv-x="571" d="M25 1950h282l117 -279h-244zM143 -2v1577h285v-1577h-285z" />
<glyph unicode="&#xcd;" horiz-adv-x="571" d="M143 -2v1577h285v-1577h-285zM150 1671l116 279h283l-156 -279h-243z" />
<glyph unicode="&#xce;" horiz-adv-x="571" d="M-70 1675v21l291 264h131l289 -264v-21h-262l-92 92l-97 -92h-260zM143 -2v1577h285v-1577h-285z" />
<glyph unicode="&#xcf;" horiz-adv-x="571" d="M-82 1808q0 53 31 90t75 46.5t88.5 1.5t75.5 -45t31 -93q0 -51 -31 -87.5t-75 -46t-88.5 -2t-75.5 44t-31 91.5zM143 -2v1577h285v-1577h-285zM371 1808q0 53 31 90t75.5 46.5t88.5 1.5t75 -45t31 -93q0 -51 -31 -87.5t-75 -46t-88.5 -2t-75.5 44t-31 91.5z" />
<glyph unicode="&#xd0;" horiz-adv-x="1310" d="M14 629v235h131v713h519q286 0 412 -110.5t126 -360.5v-643q0 -244 -128 -353.5t-410 -109.5h-519v629h-131zM426 256h238q148 0 202 51.5t54 169.5v615q0 61 -9 99.5t-35 69.5t-76.5 44.5t-131.5 13.5h-242v-455h215v-235h-215v-373z" />
<glyph unicode="&#xd1;" horiz-adv-x="1275" d="M141 0v1575h281l463 -1038l-31 665v373h281v-1575h-275l-463 999l25 -598v-401h-281zM287 1769q33 106 121.5 160.5t187.5 9.5l100 -49q62 -28 95 54l172 -72q-14 -53 -39 -96.5t-63.5 -75.5t-86.5 -38.5t-108 15.5l-111 54q-13 6 -30 8t-38 -12.5t-34 -43.5z" />
<glyph unicode="&#xd2;" horiz-adv-x="1312" d="M121 457v667q0 252 121 361.5t405 109.5q286 0 412.5 -110.5t126.5 -360.5v-667q0 -245 -129 -358t-410 -113q-279 0 -402.5 112.5t-123.5 358.5zM397 1972h283l117 -278h-244zM403 471q0 -61 9.5 -101t35.5 -72t75 -47t124 -15q76 0 126.5 15t78.5 46.5t39.5 73 t11.5 100.5v639q0 59 -9.5 98t-36 72.5t-78.5 49.5t-132 16q-75 0 -124.5 -16t-75 -49t-35 -73t-9.5 -98v-639z" />
<glyph unicode="&#xd3;" horiz-adv-x="1312" d="M121 457v667q0 252 121 361.5t405 109.5q286 0 412.5 -110.5t126.5 -360.5v-667q0 -245 -129 -358t-410 -113q-279 0 -402.5 112.5t-123.5 358.5zM403 471q0 -61 9.5 -101t35.5 -72t75 -47t124 -15q76 0 126.5 15t78.5 46.5t39.5 73t11.5 100.5v639q0 59 -9.5 98 t-36 72.5t-78.5 49.5t-132 16q-75 0 -124.5 -16t-75 -49t-35 -73t-9.5 -98v-639zM530 1690l117 278h283l-156 -278h-244z" />
<glyph unicode="&#xd4;" horiz-adv-x="1312" d="M121 457v667q0 252 121 361.5t405 109.5q286 0 412.5 -110.5t126.5 -360.5v-667q0 -245 -129 -358t-410 -113q-279 0 -402.5 112.5t-123.5 358.5zM309 1690v20l291 264h131l289 -264v-20h-262l-92 92l-97 -92h-260zM403 471q0 -61 9.5 -101t35.5 -72t75 -47t124 -15 q76 0 126.5 15t78.5 46.5t39.5 73t11.5 100.5v639q0 59 -9.5 98t-36 72.5t-78.5 49.5t-132 16q-75 0 -124.5 -16t-75 -49t-35 -73t-9.5 -98v-639z" />
<glyph unicode="&#xd5;" horiz-adv-x="1312" d="M121 457v667q0 252 121 361.5t405 109.5q286 0 412.5 -110.5t126.5 -360.5v-667q0 -245 -129 -358t-410 -113q-279 0 -402.5 112.5t-123.5 358.5zM317 1786q33 106 121.5 160.5t188.5 9.5l100 -49q62 -28 94 53l172 -72q-14 -53 -39 -96.5t-63.5 -75t-86.5 -38t-108 15.5 l-110 53q-13 8 -30.5 8.5t-38.5 -13t-34 -42.5zM403 471q0 -61 9.5 -101t35.5 -72t75 -47t124 -15q76 0 126.5 15t78.5 46.5t39.5 73t11.5 100.5v639q0 59 -9.5 98t-36 72.5t-78.5 49.5t-132 16q-75 0 -124.5 -16t-75 -49t-35 -73t-9.5 -98v-639z" />
<glyph unicode="&#xd6;" horiz-adv-x="1312" d="M121 457v667q0 252 121 361.5t405 109.5q286 0 412.5 -110.5t126.5 -360.5v-667q0 -245 -129 -358t-410 -113q-279 0 -402.5 112.5t-123.5 358.5zM283 1819q0 53 31 90t75.5 46.5t88.5 1.5t75 -45t31 -93q0 -51 -31 -87.5t-75 -46t-88.5 -2t-75.5 44t-31 91.5zM403 471 q0 -61 9.5 -101t35.5 -72t75 -47t124 -15q76 0 126.5 15t78.5 46.5t39.5 73t11.5 100.5v639q0 59 -9.5 98t-36 72.5t-78.5 49.5t-132 16q-75 0 -124.5 -16t-75 -49t-35 -73t-9.5 -98v-639zM735 1819q0 53 31 90t75.5 46.5t88.5 1.5t75 -45t31 -93q0 -51 -31 -87.5t-75 -46 t-88.5 -2t-75.5 44t-31 91.5z" />
<glyph unicode="&#xd8;" horiz-adv-x="1312" d="M121 457v667q0 252 121 361.5t405 109.5q95 0 174 -12l51 141h236l-80 -217q158 -107 158 -383v-667q0 -245 -129 -358t-410 -113q-93 0 -170 12l-45 -125h-233l73 203q-151 110 -151 381zM403 436l328 903q-44 7 -84 7q-75 0 -124.5 -16t-75 -49t-35 -73t-9.5 -98v-639 v-35zM567 242q34 -6 80 -6q76 0 126.5 15t78.5 46.5t39.5 73t11.5 100.5v639q0 8 -1 24t-1 23z" />
<glyph unicode="&#xd9;" horiz-adv-x="1304" d="M123 467v1108h283v-1094q0 -245 233 -245q123 0 185.5 64.5t62.5 180.5v1094h282v-1108q0 -240 -138 -360.5t-392 -120.5q-252 0 -384 120t-132 361zM377 1952h282l117 -279h-244z" />
<glyph unicode="&#xda;" horiz-adv-x="1304" d="M123 467v1108h283v-1094q0 -245 233 -245q123 0 185.5 64.5t62.5 180.5v1094h282v-1108q0 -240 -138 -360.5t-392 -120.5q-252 0 -384 120t-132 361zM516 1683l117 279h282l-155 -279h-244z" />
<glyph unicode="&#xdb;" horiz-adv-x="1304" d="M123 467v1108h283v-1094q0 -245 233 -245q123 0 185.5 64.5t62.5 180.5v1094h282v-1108q0 -240 -138 -360.5t-392 -120.5q-252 0 -384 120t-132 361zM299 1688v20l291 264h131l289 -264v-20h-262l-93 92l-96 -92h-260z" />
<glyph unicode="&#xdc;" horiz-adv-x="1304" d="M123 467v1108h283v-1094q0 -245 233 -245q123 0 185.5 64.5t62.5 180.5v1094h282v-1108q0 -240 -138 -360.5t-392 -120.5q-252 0 -384 120t-132 361zM268 1829q0 53 31 90t75 46.5t88.5 1.5t75.5 -45t31 -93q0 -37 -16.5 -67t-43 -45.5t-59 -23.5t-64.5 -1.5t-58.5 21.5 t-43 45.5t-16.5 70.5zM721 1829q0 53 31 90t75.5 46.5t88.5 1.5t75 -45t31 -93q0 -51 -31 -87.5t-75 -46t-88.5 -2t-75.5 44t-31 91.5z" />
<glyph unicode="&#xdd;" horiz-adv-x="1077" d="M-4 1577h305l123 -291l115 -338l114 346l117 283h305l-397 -918v-661h-281v661zM391 1675l117 279h283l-156 -279h-244z" />
<glyph unicode="&#xde;" horiz-adv-x="1185" d="M143 0v1581h287v-250h111q289 0 424 -111.5t135 -359.5v-145q0 -243 -138 -360t-421 -117h-109v-238h-289zM430 510h111q150 0 211 51.5t61 167.5v117q0 80 -21 127t-80.5 73.5t-166.5 26.5h-115v-563z" />
<glyph unicode="&#xdf;" horiz-adv-x="1099" d="M104 0v1176q0 96 22 170t70 132.5t133.5 89.5t205.5 31q117 0 201 -31t131 -89.5t68 -132.5t21 -170q0 -91 -31 -173.5t-96 -128.5q115 -54 179.5 -159.5t64.5 -239.5q0 -256 -122 -365.5t-404 -109.5h-64v246h68q133 0 181 56t48 171t-50 167t-159 52h-75v260h2 q51 0 87.5 22t54.5 58.5t26 71.5t8 72q0 176 -144 176q-137 0 -137 -176v-1176h-289z" />
<glyph unicode="&#xe0;" horiz-adv-x="1112" d="M74 326q0 414 653 368q0 143 -38.5 207t-143.5 64q-93 0 -130 -38t-36 -134h-268q-13 219 97.5 320t334.5 101q234 0 343 -116.5t109 -354.5v-743h-229l-27 139q-52 -72 -135 -113.5t-182 -41.5q-155 0 -251.5 88.5t-96.5 253.5zM291 1597h282l117 -278h-244zM340 348 q0 -106 166 -106q59 0 101.5 19.5t66.5 55.5t36 75t17 89q-203 21 -295 -17t-92 -116z" />
<glyph unicode="&#xe1;" horiz-adv-x="1112" d="M74 326q0 414 653 368q0 143 -38.5 207t-143.5 64q-93 0 -130 -38t-36 -134h-268q-13 219 97.5 320t334.5 101q234 0 343 -116.5t109 -354.5v-743h-229l-27 139q-52 -72 -135 -113.5t-182 -41.5q-155 0 -251.5 88.5t-96.5 253.5zM340 348q0 -106 166 -106 q59 0 101.5 19.5t66.5 55.5t36 75t17 89q-203 21 -295 -17t-92 -116zM401 1315l117 278h283l-156 -278h-244z" />
<glyph unicode="&#xe2;" horiz-adv-x="1112" d="M74 326q0 414 653 368q0 143 -38.5 207t-143.5 64q-93 0 -130 -38t-36 -134h-268q-13 219 97.5 320t334.5 101q234 0 343 -116.5t109 -354.5v-743h-229l-27 139q-52 -72 -135 -113.5t-182 -41.5q-155 0 -251.5 88.5t-96.5 253.5zM201 1323v20l291 265h131l288 -265v-20 h-262l-92 92l-96 -92h-260zM340 348q0 -106 166 -106q59 0 101.5 19.5t66.5 55.5t36 75t17 89q-203 21 -295 -17t-92 -116z" />
<glyph unicode="&#xe3;" horiz-adv-x="1112" d="M74 326q0 414 653 368q0 143 -38.5 207t-143.5 64q-93 0 -130 -38t-36 -134h-268q-13 219 97.5 320t334.5 101q234 0 343 -116.5t109 -354.5v-743h-229l-27 139q-52 -72 -135 -113.5t-182 -41.5q-155 0 -251.5 88.5t-96.5 253.5zM217 1425q33 103 119 156.5t182 9.5 l98 -49q62 -24 93 53l168 -69q-14 -52 -38.5 -95t-61.5 -74t-84 -37t-105 15l-109 51q-13 8 -29.5 8.5t-37 -13t-33.5 -42.5zM340 348q0 -106 166 -106q59 0 101.5 19.5t66.5 55.5t36 75t17 89q-203 21 -295 -17t-92 -116z" />
<glyph unicode="&#xe4;" horiz-adv-x="1112" d="M74 326q0 414 653 368q0 143 -38.5 207t-143.5 64q-93 0 -130 -38t-36 -134h-268q-13 219 97.5 320t334.5 101q234 0 343 -116.5t109 -354.5v-743h-229l-27 139q-52 -72 -135 -113.5t-182 -41.5q-155 0 -251.5 88.5t-96.5 253.5zM190 1470q0 51 30 87t72.5 45t85.5 1 t73 -43.5t30 -89.5q0 -49 -30 -83.5t-72.5 -43.5t-85.5 -2t-73 42t-30 87zM340 348q0 -106 166 -106q59 0 101.5 19.5t66.5 55.5t36 75t17 89q-203 21 -295 -17t-92 -116zM627 1470q0 51 29.5 87t72 45t85 1t72 -43.5t29.5 -89.5q0 -35 -16 -63.5t-41.5 -44t-56 -23t-61 -1 t-56 21t-41.5 43.5t-16 67z" />
<glyph unicode="&#xe5;" horiz-adv-x="1112" d="M74 326q0 414 653 368q0 143 -38.5 207t-143.5 64q-93 0 -130 -38t-36 -134h-268q-13 219 97.5 320t334.5 101q234 0 343 -116.5t109 -354.5v-743h-229l-27 139q-52 -72 -135 -113.5t-182 -41.5q-155 0 -251.5 88.5t-96.5 253.5zM319 1479q0 95 71.5 149.5t172.5 54.5 q103 0 173.5 -53.5t70.5 -148.5t-71.5 -150t-174.5 -55q-105 0 -174 54.5t-68 148.5zM340 348q0 -106 166 -106q59 0 101.5 19.5t66.5 55.5t36 75t17 89q-203 21 -295 -17t-92 -116zM476 1479.5q0 -27.5 23 -51t64 -23.5q43 0 66.5 23.5t23 51t-24.5 51t-65 23.5t-64 -23.5 t-23 -51z" />
<glyph unicode="&#xe6;" horiz-adv-x="1738" d="M74 326q0 414 653 368v11q-2 136 -40.5 198t-141.5 62q-93 0 -128 -36t-34 -132h-268q-13 219 95.5 318t332.5 99q223 0 321 -165q99 163 318 163q232 0 343 -121.5t111 -349.5v-239h-655v-31q0 -137 49 -188.5t144 -51.5q186 0 186 140h276q0 -387 -467 -387 q-255 0 -340 186q-43 -61 -88 -99.5t-98 -57t-101 -24t-120 -5.5q-155 0 -251.5 88.5t-96.5 253.5zM340 348q0 -106 166 -106q59 0 101.5 19.5t66.5 55.5t36 75t17 89q-203 21 -295 -17t-92 -116zM981 733h393q0 39 -3.5 69.5t-15 63t-31 54t-54 35.5t-80.5 14 q-118 0 -163.5 -59t-45.5 -177z" />
<glyph unicode="&#xe7;" horiz-adv-x="1132" d="M102 457v270q0 485 478 485q240 0 350 -106t110 -348h-266q0 106 -43 155.5t-145 49.5q-112 0 -156.5 -58.5t-44.5 -177.5v-262q0 -120 40.5 -178t145.5 -58q109 0 155 49t48 158h266q0 -212 -87.5 -320t-270.5 -130l-23 -72q61 -4 103.5 -26.5t60.5 -56t24 -75.5t-7 -84 q-16 -63 -63.5 -107.5t-110.5 -62.5t-131 -17t-133 28.5t-109 74.5l90 129q26 -24 73 -40.5t94.5 -9.5t61.5 48q10 42 -46 73t-142 34l51 164q-190 20 -281.5 134.5t-91.5 336.5z" />
<glyph unicode="&#xe8;" d="M109 467v274q0 230 117 350.5t352 120.5q239 0 354 -114t115 -357v-239h-656v-31q0 -71 13 -118t40 -71t59 -33t79 -9q188 0 188 131h277q0 -190 -115.5 -282.5t-353.5 -92.5q-239 0 -354 114t-115 357zM342 1585h283l116 -278h-243zM391 733h383q0 125 -37.5 180.5 t-150.5 55.5q-61 0 -100.5 -15.5t-59.5 -49t-27.5 -73t-7.5 -98.5z" />
<glyph unicode="&#xe9;" d="M109 467v274q0 230 117 350.5t352 120.5q239 0 354 -114t115 -357v-239h-656v-31q0 -71 13 -118t40 -71t59 -33t79 -9q188 0 188 131h277q0 -190 -115.5 -282.5t-353.5 -92.5q-239 0 -354 114t-115 357zM391 733h383q0 125 -37.5 180.5t-150.5 55.5q-61 0 -100.5 -15.5 t-59.5 -49t-27.5 -73t-7.5 -98.5zM442 1309l117 278h283l-156 -278h-244z" />
<glyph unicode="&#xea;" d="M109 467v274q0 230 117 350.5t352 120.5q239 0 354 -114t115 -357v-239h-656v-31q0 -71 13 -118t40 -71t59 -33t79 -9q188 0 188 131h277q0 -190 -115.5 -282.5t-353.5 -92.5q-239 0 -354 114t-115 357zM231 1311v20l291 264h131l289 -264v-20h-262l-92 92l-96 -92h-261z M391 733h383q0 125 -37.5 180.5t-150.5 55.5q-61 0 -100.5 -15.5t-59.5 -49t-27.5 -73t-7.5 -98.5z" />
<glyph unicode="&#xeb;" d="M109 467v274q0 230 117 350.5t352 120.5q239 0 354 -114t115 -357v-239h-656v-31q0 -71 13 -118t40 -71t59 -33t79 -9q188 0 188 131h277q0 -190 -115.5 -282.5t-353.5 -92.5q-239 0 -354 114t-115 357zM223 1452q0 50 30 85t72.5 44t85.5 1.5t73 -43t30 -87.5 q0 -49 -30 -83.5t-72.5 -43.5t-85.5 -2t-73 42t-30 87zM391 733h383q0 125 -37.5 180.5t-150.5 55.5q-61 0 -100.5 -15.5t-59.5 -49t-27.5 -73t-7.5 -98.5zM659 1452q0 50 30 85t72.5 44t84.5 1.5t72 -43t30 -87.5q0 -49 -30 -83.5t-72 -43.5t-84.5 -2t-72.5 42t-30 87z" />
<glyph unicode="&#xec;" horiz-adv-x="532" d="M10 1577h283l117 -279h-244zM125 -2v1184h281v-1184h-281z" />
<glyph unicode="&#xed;" horiz-adv-x="530" d="M125 -2v1184h281v-1184h-281zM129 1305l117 278h282l-155 -278h-244z" />
<glyph unicode="&#xee;" horiz-adv-x="532" d="M-49 1317v22l260 271h117l258 -271v-22h-236l-82 96l-86 -96h-231zM125 -2v1184h281v-1184h-281z" />
<glyph unicode="&#xef;" horiz-adv-x="532" d="M-86 1458q0 40 16.5 71.5t43 48t58.5 24.5t64.5 1t59 -23.5t43 -48.5t16.5 -73q0 -38 -16.5 -69t-43 -47.5t-58.5 -24.5t-64.5 -1t-59 22.5t-43 47t-16.5 72.5zM125 -2v1184h281v-1184h-281zM313 1458q0 55 31 93.5t75.5 48t88.5 1t75 -47t31 -95.5q0 -38 -16.5 -69 t-43 -47.5t-58.5 -24.5t-64.5 -1t-59 22.5t-43 47t-16.5 72.5z" />
<glyph unicode="&#xf0;" horiz-adv-x="1118" d="M96 451v247q0 219 110 327t304 108q56 0 100 -3q-49 84 -96 144l-145 -84l-68 110l127 74q-103 108 -221 174l8 29h340q55 -39 96 -74l133 78l70 -111l-106 -61q128 -145 203 -330t75 -381v-247q0 -253 -107 -361t-358 -108q-250 0 -357.5 108.5t-107.5 360.5zM381 451 q0 -116 41 -158.5t139 -42.5t139 42.5t41 158.5v247q0 104 -41.5 142.5t-138.5 38.5t-138.5 -38.5t-41.5 -142.5v-247z" />
<glyph unicode="&#xf1;" horiz-adv-x="1239" d="M162 0v1208h244l14 -123q55 65 130 98.5t155 33.5q63 1 117.5 -12.5t106.5 -47t88.5 -86t58.5 -136t22 -190.5v-745h-279v743q0 114 -46 167t-136 53q-89 0 -142 -49.5t-53 -159.5v-754h-280zM326 1442q31 101 114 152.5t178 9.5l95 -48q20 -14 46 -2.5t42 52.5l164 -66 q-28 -108 -102 -166.5t-179 -17.5l-104 49q-13 8 -29.5 9t-36.5 -12t-33 -40z" />
<glyph unicode="&#xf2;" horiz-adv-x="1142" d="M102 451v290q0 238 116 354.5t353 116.5q239 0 354 -114t115 -357v-290q0 -243 -115 -357t-354 -114t-354 114t-115 357zM324 1589h282l117 -278h-244zM385 465q0 -120 40.5 -178t145.5 -58t146 58t41 178v262q0 120 -41 178t-146 58t-145.5 -58t-40.5 -178v-262z" />
<glyph unicode="&#xf3;" horiz-adv-x="1142" d="M102 451v290q0 238 116 354.5t353 116.5q239 0 354 -114t115 -357v-290q0 -243 -115 -357t-354 -114t-354 114t-115 357zM385 465q0 -120 40.5 -178t145.5 -58t146 58t41 178v262q0 120 -41 178t-146 58t-145.5 -58t-40.5 -178v-262zM444 1309l117 278h283l-156 -278 h-244z" />
<glyph unicode="&#xf4;" horiz-adv-x="1142" d="M102 451v290q0 238 116 354.5t353 116.5q239 0 354 -114t115 -357v-290q0 -243 -115 -357t-354 -114t-354 114t-115 357zM219 1319v20l291 265h131l289 -265v-20h-262l-93 92l-96 -92h-260zM385 465q0 -120 40.5 -178t145.5 -58t146 58t41 178v262q0 120 -41 178t-146 58 t-145.5 -58t-40.5 -178v-262z" />
<glyph unicode="&#xf5;" horiz-adv-x="1142" d="M102 451v290q0 238 116 354.5t353 116.5q239 0 354 -114t115 -357v-290q0 -243 -115 -357t-354 -114t-354 114t-115 357zM248 1419q31 103 116.5 156.5t182.5 9.5l96 -49q61 -25 90 53l168 -69q-30 -112 -106 -172.5t-183 -18.5l-106 51q-11 8 -28 8.5t-37.5 -12.5 t-32.5 -41zM385 465q0 -120 40.5 -178t145.5 -58t146 58t41 178v262q0 120 -41 178t-146 58t-145.5 -58t-40.5 -178v-262z" />
<glyph unicode="&#xf6;" horiz-adv-x="1142" d="M102 451v290q0 238 116 354.5t353 116.5q239 0 354 -114t115 -357v-290q0 -243 -115 -357t-354 -114t-354 114t-115 357zM211 1454q0 37 16 67t42 46t57 23.5t62.5 0.5t57.5 -22t42 -45.5t16 -69.5q0 -36 -16 -65t-42 -44.5t-57 -23.5t-62.5 -1.5t-57.5 21.5t-42 44.5 t-16 68.5zM385 465q0 -120 40.5 -178t145.5 -58t146 58t41 178v262q0 120 -41 178t-146 58t-145.5 -58t-40.5 -178v-262zM651 1454q0 37 16 67t42 46t57.5 23.5t62.5 0.5t57 -22t42 -45.5t16 -69.5q0 -36 -16 -65t-42 -44.5t-57 -23.5t-62.5 -1.5t-57.5 21.5t-42 44.5 t-16 68.5z" />
<glyph unicode="&#xf7;" horiz-adv-x="966" d="M51 543h836v235h-836v-235zM319 315q0 67 43.5 105.5t104.5 38.5q60 0 104.5 -38.5t44.5 -105.5q0 -68 -44.5 -106.5t-104.5 -38.5q-61 0 -104.5 38.5t-43.5 106.5zM319 1004q0 67 43.5 105t104.5 38q60 0 104.5 -38t44.5 -105t-44.5 -105.5t-104.5 -38.5 q-61 0 -104.5 38.5t-43.5 105.5z" />
<glyph unicode="&#xf8;" horiz-adv-x="1142" d="M102 451v290q0 238 116 354.5t353 116.5q84 0 162 -16l58 129h221l-99 -217q127 -112 127 -367v-290q0 -243 -115 -357t-354 -114q-86 0 -161 16l-54 -119h-219l92 205q-127 112 -127 369zM385 428l240 528q-28 7 -54 7q-105 0 -145.5 -58t-40.5 -178v-262v-37zM518 233 q32 -4 53 -4q105 0 146 58t41 178v262q0 25 -2 35z" />
<glyph unicode="&#xf9;" horiz-adv-x="1220" d="M135 465v745h279v-743q0 -114 46 -166.5t136 -52.5q89 0 142 49.5t53 159.5v753h286v-1208h-250l-14 123q-55 -65 -130 -98t-155 -33q-63 -1 -117.5 12t-106.5 47t-88.5 86t-58.5 135.5t-22 190.5zM340 1602h283l116 -279h-243z" />
<glyph unicode="&#xfa;" horiz-adv-x="1220" d="M135 465v745h279v-743q0 -114 46 -166.5t136 -52.5q89 0 142 49.5t53 159.5v753h286v-1208h-250l-14 123q-55 -65 -130 -98t-155 -33q-63 -1 -117.5 12t-106.5 47t-88.5 86t-58.5 135.5t-22 190.5zM467 1319l117 278h282l-155 -278h-244z" />
<glyph unicode="&#xfb;" horiz-adv-x="1220" d="M135 465v745h279v-743q0 -114 46 -166.5t136 -52.5q89 0 142 49.5t53 159.5v753h286v-1208h-250l-14 123q-55 -65 -130 -98t-155 -33q-63 -1 -117.5 12t-106.5 47t-88.5 86t-58.5 135.5t-22 190.5zM256 1321v20l291 265h131l289 -265v-20h-262l-93 92l-96 -92h-260z" />
<glyph unicode="&#xfc;" horiz-adv-x="1220" d="M135 465v745h279v-743q0 -114 46 -166.5t136 -52.5q89 0 142 49.5t53 159.5v753h286v-1208h-250l-14 123q-55 -65 -130 -98t-155 -33q-63 -1 -117.5 12t-106.5 47t-88.5 86t-58.5 135.5t-22 190.5zM238 1479q0 53 31 90t75 46.5t88.5 1.5t75.5 -45t31 -93 q0 -37 -16.5 -67t-43 -45.5t-59 -23.5t-64.5 -1.5t-58.5 21.5t-43 45.5t-16.5 70.5zM690 1479q0 53 31 90t75 46.5t88.5 1.5t75.5 -45t31 -93q0 -43 -22.5 -75.5t-55.5 -48t-72.5 -16t-72.5 13.5t-55.5 47t-22.5 79z" />
<glyph unicode="&#xfd;" horiz-adv-x="1044" d="M31 1208h293l108 -362q58 -233 94 -508q45 306 95 508l106 362h293l-358 -1194h2l-66 -233q-38 -133 -105.5 -195.5t-158 -60.5t-207.5 47l43 207q6 -1 26.5 -6t28 -6.5t25 -3.5t25.5 -0.5t21 6t20.5 13t16 23t13.5 33.5l47 170zM375 1315l117 278h282l-156 -278h-243z " />
<glyph unicode="&#xfe;" horiz-adv-x="1193" d="M135 -367v1950h281v-465q86 99 256 99q188 0 292.5 -112.5t104.5 -354.5v-312q0 -216 -103 -333t-302 -117q-186 0 -248 106v-461h-281zM416 449q0 -201 182 -201q94 0 142 48.5t48 154.5v284q0 125 -47 178.5t-135 53.5q-99 0 -144.5 -65t-45.5 -177v-276z" />
<glyph unicode="&#xff;" horiz-adv-x="1044" d="M31 1208h293l108 -362q58 -233 94 -508q45 306 95 508l106 362h293l-358 -1194h2l-66 -233q-38 -133 -105.5 -195.5t-158 -60.5t-207.5 47l43 207q6 -1 26.5 -6t28 -6.5t25 -3.5t25.5 -0.5t21 6t20.5 13t16 23t13.5 33.5l47 170zM156 1479q0 53 31 90t75 46.5t88.5 1.5 t75.5 -45t31 -93q0 -37 -16.5 -67t-43 -45.5t-59 -23.5t-64.5 -1.5t-58.5 21.5t-43 45.5t-16.5 70.5zM608 1479q0 53 31 90t75 46.5t88.5 1.5t75.5 -45t31 -93q0 -43 -22.5 -75.5t-55.5 -48t-72.5 -16t-72.5 13.5t-55.5 47t-22.5 79z" />
<glyph unicode="&#x131;" horiz-adv-x="557" d="M145 -2v1184h281v-1184h-281z" />
<glyph unicode="&#x152;" horiz-adv-x="1628" d="M104 471v639q0 171 47.5 272t158.5 150t302 49h156h762v-246h-500v-405h443v-254h-443v-418h512v-258h-930q-277 0 -392.5 111t-115.5 360zM387 485q0 -42 2.5 -70t10 -57t23 -47t40 -33t61.5 -21.5t88 -6.5h156v1081h-156q-75 0 -121.5 -15.5t-68.5 -50t-28.5 -71.5 t-6.5 -98v-611z" />
<glyph unicode="&#x153;" horiz-adv-x="1761" d="M102 451v290q0 238 116 354.5t353 116.5q204 0 322 -141q43 61 127.5 101t185.5 40q239 0 354 -114t115 -357v-239h-661v-45q3 -127 52 -173t144 -46q99 0 150 34.5t51 98.5h264q0 -207 -110 -295t-359 -88q-205 0 -311 141q-107 -149 -324 -149q-239 0 -354 114 t-115 357zM385 465q0 -120 40.5 -178t145.5 -58q106 0 148.5 58.5t42.5 177.5v2v274q-3 110 -46.5 166t-144.5 56q-105 0 -145.5 -58t-40.5 -178v-262zM1014 733h389q0 124 -38 180t-151 56q-112 0 -155 -53.5t-45 -161.5v-13v-8z" />
<glyph unicode="&#x178;" horiz-adv-x="1069" d="M-4 1577h305l123 -291l115 -338l114 346l117 283h305l-397 -918v-661h-281v661zM154 1835q0 53 31 90t75 46.5t88.5 1.5t75.5 -45t31 -93q0 -37 -16.5 -67t-43 -45.5t-59 -23.5t-64.5 -1.5t-58.5 21.5t-43 45.5t-16.5 70.5zM606 1835q0 53 31 90t75 46.5t88.5 1.5 t75.5 -45t31 -93q0 -43 -22.5 -75.5t-55.5 -48t-72.5 -16t-72.5 13.5t-55.5 47t-22.5 79z" />
<glyph unicode="&#x192;" horiz-adv-x="845" d="M61 -182q135 0 178.5 41.5t43.5 167.5v847h-193v256h193v46q0 237 129.5 337.5t396.5 83.5v-249q-137 17 -191.5 -27t-54.5 -150v-41h232v-258h-232v-843q0 -241 -119 -355.5t-383 -97.5v242z" />
<glyph unicode="&#x2c6;" horiz-adv-x="727" d="M25 1296v21l290 264h131l289 -264v-21h-262l-92 93l-96 -93h-260z" />
<glyph unicode="&#x2c7;" horiz-adv-x="784" d="M23 1559v20h262l92 -92l96 92h260v-20l-291 -265h-131z" />
<glyph unicode="&#x2d8;" horiz-adv-x="671" d="M41 1583h211q0 -94 88 -94q86 0 86 94h213q-2 -140 -74.5 -207t-224.5 -67q-151 0 -224 67.5t-75 206.5z" />
<glyph unicode="&#x2d9;" horiz-adv-x="485" d="M82 1470q0 67 46.5 106.5t103 40t103 -38t46.5 -108.5q0 -44 -22 -77.5t-55.5 -49.5t-72 -17t-72 13.5t-55.5 48.5t-22 82z" />
<glyph unicode="&#x2da;" horiz-adv-x="655" d="M86 1378q0 113 72.5 177.5t175.5 64.5q106 0 178 -63.5t72 -176.5t-73 -178t-179 -65q-107 0 -177 64.5t-69 176.5zM245 1378q0 -33 24 -60.5t65 -27.5q44 0 68.5 27.5t24 60.5t-25.5 60.5t-67 27.5q-41 0 -65 -27.5t-24 -60.5z" />
<glyph unicode="&#x2db;" horiz-adv-x="825" d="M254 -178q0 74 47.5 132.5t120.5 96.5h194q-42 -27 -70 -57t-38.5 -56.5t-8.5 -49t15 -38.5q8 -9 21.5 -15.5t41.5 -10t64 7.5l10 -201q-36 -5 -64 -7.5t-71.5 -3.5t-76.5 4t-69.5 18.5t-60.5 35t-39.5 58.5t-15.5 86z" />
<glyph unicode="&#x2dc;" horiz-adv-x="843" d="M82 1401q33 106 121.5 160.5t187.5 9.5l101 -49q62 -28 94 53l172 -72q-14 -53 -39 -96.5t-63.5 -75t-86.5 -38t-108 15.5l-111 53q-13 8 -30 8.5t-38 -13t-34 -42.5z" />
<glyph unicode="&#x2dd;" horiz-adv-x="755" d="M88 1354l133 233h246v-4l-162 -229h-217zM422 1352l133 235h246v-4l-160 -231h-219z" />
<glyph unicode="&#x401;" d="M143 -2v1579h908v-246h-625v-405h532v-254h-532v-416h653v-258h-936zM215 1812q0 51 30 87t73.5 45t86.5 1t73 -43.5t30 -89.5q0 -35 -16 -63.5t-42 -44t-57 -23t-62.5 -1t-57.5 21t-42 43.5t-16 67zM653 1812q0 51 30 87t72.5 45t85.5 1t73 -43.5t30 -89.5 q0 -49 -30 -83.5t-72.5 -43.5t-85.5 -2t-73 42t-30 87z" />
<glyph unicode="&#x402;" horiz-adv-x="1374" d="M16 1329v252h924v-252h-326v-299q86 107 254 107q191 0 287 -112.5t96 -313.5v-277q0 -136 -21 -221.5t-73.5 -137.5t-131.5 -71.5t-206 -19.5v239q49 0 74 5.5t45 26.5t26.5 61.5t6.5 111.5v250q0 108 -43 154.5t-133 48.5q-172 0 -181 -183v-698h-270v1329h-328z" />
<glyph unicode="&#x403;" horiz-adv-x="983" d="M143 0v1581h791v-260h-510v-1321h-281zM418 1690l117 278h266l-156 -278h-227z" />
<glyph unicode="&#x404;" horiz-adv-x="1316" d="M119 461v655q0 253 121.5 363t406.5 110q288 0 414.5 -114t126.5 -377h-283q0 63 -9.5 103.5t-36.5 74t-79 48.5t-133 15q-75 0 -124 -15t-75 -48t-35.5 -73t-9.5 -101v-176h375v-254h-375v-195q0 -61 9.5 -101t35.5 -73t75 -48t124 -15q147 0 202.5 59t55.5 184h283 q0 -260 -128.5 -376.5t-412.5 -116.5q-281 0 -404.5 112t-123.5 359z" />
<glyph unicode="&#x405;" horiz-adv-x="1236" d="M90 428h285q5 -96 57.5 -141t181.5 -45t188.5 59t59.5 191q0 34 -10.5 61.5t-26 46t-43 34t-51 24t-62.5 16t-63.5 10.5t-68 8t-64.5 8q-58 8 -107 23t-98.5 47t-84 78.5t-56 120.5t-21.5 168q0 220 130 334t374 114q111 0 195.5 -21.5t150.5 -70t105 -130.5t49 -198 h-285q-6 96 -57 134t-158 38q-119 0 -169 -43.5t-50 -154.5q0 -37 8 -65t19.5 -47.5t35.5 -34.5t45 -23.5t59 -15.5t66 -11t78.5 -10.5t85.5 -11.5q61 -10 108 -24.5t96 -45t80.5 -73.5t52 -113.5t20.5 -161.5q0 -274 -126.5 -396t-410.5 -122q-518 0 -518 444z" />
<glyph unicode="&#x406;" horiz-adv-x="571" d="M143 -2v1577h285v-1577h-285z" />
<glyph unicode="&#x407;" horiz-adv-x="571" d="M-82 1808q0 53 31 90t75 46.5t88.5 1.5t75.5 -45t31 -93q0 -51 -31 -87.5t-75 -46t-88.5 -2t-75.5 44t-31 91.5zM143 -2v1577h285v-1577h-285zM371 1808q0 53 31 90t75.5 46.5t88.5 1.5t75 -45t31 -93q0 -51 -31 -87.5t-75 -46t-88.5 -2t-75.5 44t-31 91.5z" />
<glyph unicode="&#x408;" horiz-adv-x="1077" d="M16 475h283q0 -120 40.5 -177.5t145.5 -57.5t146 57.5t41 177.5v1102h282v-1116q0 -243 -115 -357t-354 -114q-237 0 -353 120t-116 365z" />
<glyph unicode="&#x409;" horiz-adv-x="1812" d="M8 0l10 276q66 -5 112.5 22t69 60t35.5 106t15 108.5t3 118.5q1 28 1 42l14 848h830v-629h84q281 0 412.5 -116t131.5 -361v-2q0 -251 -128.5 -362t-415.5 -111h-373v1323h-262l-15 -590q-3 -152 -13 -252.5t-42 -207.5t-86.5 -165t-150.5 -90t-232 -18zM1096 254h90 q81 0 131.5 12.5t77 42.5t35 67.5t8.5 98.5q0 113 -55 163t-201 50h-86v-434z" />
<glyph unicode="&#x40a;" horiz-adv-x="1808" d="M143 0v1579h285v-641h399v-258h-399v-680h-285zM805 0v1581h289v-629h84q281 0 412.5 -116t131.5 -361v-2q0 -251 -128.5 -362t-415.5 -111h-373zM1092 254h90q81 0 131.5 12.5t77 42.5t35 67.5t8.5 98.5q0 113 -55 163t-201 50h-86v-434z" />
<glyph unicode="&#x40b;" horiz-adv-x="1374" d="M16 1329v252h924v-252h-326v-299q86 107 254 107q191 0 287 -112.5t96 -313.5v-711h-280v678q0 108 -43 154.5t-133 48.5q-172 0 -181 -183v-698h-270v1329h-328z" />
<glyph unicode="&#x40c;" horiz-adv-x="1294" d="M133 0v1581h285v-637h69q19 0 36.5 4.5t30.5 9.5t26.5 19t21 21t18.5 28.5t15 29t13.5 35t11.5 33.5t12 37q49 160 88 228q84 149 253 184q91 19 212 8l-21 -262q-50 2 -85 -0.5t-61 -14t-41.5 -24t-29.5 -40t-22 -50.5t-21 -67q-8 -26 -12 -40q-34 -110 -69 -182 t-87 -119l510 -782h-346l-414 662h-110v-662h-283zM541 1657l116 278h277l-156 -278h-237z" />
<glyph unicode="&#x40e;" horiz-adv-x="1097" d="M25 1581h303l110 -362l119 -398q18 74 61 209t58 189l119 362h297l-445 -1333q-31 -98 -83.5 -158.5t-124.5 -82t-156.5 -14.5t-188.5 40l56 237q91 -19 127 -16q70 9 90 76l41 137zM215 1970h209q1 -56 31.5 -76t89.5 -20q58 0 86 20.5t28 75.5h215q-3 -155 -80 -223 t-249 -68t-249.5 68t-80.5 223z" />
<glyph unicode="&#x40f;" horiz-adv-x="1341" d="M150 0v1581h280v-1323h492v1323h284v-1581h-387v-242h-270v242h-399z" />
<glyph unicode="&#x410;" horiz-adv-x="1183" d="M18 0l437 1575h280l430 -1575h-291l-79 279h-404l-82 -279h-291zM461 555h262l-131 584z" />
<glyph unicode="&#x411;" horiz-adv-x="1185" d="M123 0v1581h860v-260h-580v-340h150q137 0 236.5 -24t174 -79.5t111.5 -151.5t37 -234q0 -139 -37 -235.5t-111.5 -152t-174 -80t-236.5 -24.5h-430zM403 258h154q139 0 195.5 49t56.5 185q0 134 -56.5 182.5t-195.5 48.5h-154v-465z" />
<glyph unicode="&#x412;" horiz-adv-x="1185" d="M123 0v1581h452q216 0 342.5 -100t126.5 -307q0 -107 -49 -190.5t-145 -121.5q126 -27 194 -119.5t68 -250.5q0 -139 -36.5 -235.5t-110.5 -152.5t-174.5 -80t-239.5 -24h-428zM403 258h152q142 0 198 46t56 181q0 81 -21 128t-78 72.5t-159 25.5h-148v-453zM406 973h172 q82 0 126 52t44 132q0 33 -8 61t-26 53.5t-53.5 40.5t-85.5 15h-169v-354z" />
<glyph unicode="&#x413;" horiz-adv-x="983" d="M143 0v1581h791v-260h-510v-1321h-281z" />
<glyph unicode="&#x414;" horiz-adv-x="1308" d="M10 -225v475h111q137 158 137 577v754h858v-1331h144v-475h-267v225h-717v-225h-266zM403 250h433v1079h-301v-502q0 -153 -31.5 -313t-100.5 -264z" />
<glyph unicode="&#x415;" d="M143 -2v1579h908v-246h-625v-405h532v-254h-532v-416h653v-258h-936z" />
<glyph unicode="&#x416;" horiz-adv-x="1941" d="M10 0l504 782q-37 33 -66 84.5t-44.5 92t-41.5 122.5q-4 13 -11 38q-20 70 -31.5 98.5t-39 59t-71 37.5t-117.5 3l-20 264q285 25 414 -120q67 -75 119 -236q7 -21 20 -63v-1q2 -6 9 -29t10 -31t10.5 -29t12.5 -30t14.5 -26t17.5 -25t20.5 -19.5t25.5 -16.5t29.5 -9 t34.5 -4h27v639h278v-639h27q18 0 34.5 4t29.5 9t25.5 16.5t20.5 19.5t17.5 25t14.5 26t12.5 30t10.5 29t10 31t9 29q49 160 88 228q84 149 253 184q91 19 212 8l-20 -264q-61 3 -101.5 -4t-64.5 -16t-44 -44t-27 -56t-25 -85l-3 -10.5t-3 -9.5t-3 -11q-26 -80 -41.5 -122 t-44.5 -93t-65 -84l503 -782h-346l-409 662h-72v-662h-274v662h-72l-410 -662h-346z" />
<glyph unicode="&#x417;" horiz-adv-x="1130" d="M80 481h268q0 -123 51.5 -178t159.5 -55q105 0 152 50.5t47 170.5q0 111 -62.5 175.5t-175.5 64.5h-153v254q17 0 48 -1t56.5 -1t48.5 2q111 0 168 44.5t57 153.5q0 88 -49.5 138.5t-138.5 50.5q-192 0 -192 -203h-265q0 240 109.5 343.5t349.5 108.5q206 3 329.5 -112 t123.5 -320q0 -37 -8.5 -80t-27 -91t-54.5 -90t-84 -64q77 -33 125 -96t64.5 -128.5t16.5 -142.5q0 -493 -485 -493q-246 0 -362.5 123t-116.5 376z" />
<glyph unicode="&#x418;" horiz-adv-x="1280" d="M143 0v1579h281v-373l-33 -669l467 1042h281v-1579h-281v403l25 601l-465 -1004h-275z" />
<glyph unicode="&#x419;" horiz-adv-x="1280" d="M143 0v1579h281v-373l-33 -669l467 1042h281v-1579h-281v403l25 601l-465 -1004h-275zM307 1995h225q1 -61 33.5 -84t96.5 -23q61 0 91 23t31 84h230q-1 -169 -84 -243.5t-268 -74.5q-187 0 -270 74.5t-85 243.5z" />
<glyph unicode="&#x41a;" horiz-adv-x="1294" d="M133 0v1581h285v-637h69q19 0 36.5 4.5t30.5 9.5t26.5 19t21 21t18.5 28.5t15 29t13.5 35t11.5 33.5t12 37q49 160 88 228q84 149 253 184q91 19 212 8l-21 -262q-50 2 -85 -0.5t-61 -14t-41.5 -24t-29.5 -40t-22 -50.5t-21 -67q-8 -26 -12 -40q-34 -110 -69 -182 t-87 -119l510 -782h-346l-414 662h-110v-662h-283z" />
<glyph unicode="&#x41b;" horiz-adv-x="1343" d="M10 0l10 276q66 -5 112.5 22t69 60t35.5 106t15 108.5t3 118.5q1 28 1 42l14 848h932v-1581h-282v1323h-371l-14 -590q-3 -152 -13.5 -252.5t-42 -207.5t-86.5 -165t-151 -90t-232 -18z" />
<glyph unicode="&#x41c;" horiz-adv-x="1474" d="M143 0v1577h273l321 -698l324 698h272v-1577h-282v557l32 451l-313 -635h-63l-314 635l33 -451v-557h-283z" />
<glyph unicode="&#x41d;" horiz-adv-x="1341" d="M143 0v1579h285v-670h492v670h280v-1579h-280v651h-492v-651h-285z" />
<glyph unicode="&#x41e;" horiz-adv-x="1312" d="M121 457v667q0 252 121 361.5t405 109.5q286 0 412.5 -110.5t126.5 -360.5v-667q0 -245 -129 -358t-410 -113q-279 0 -402.5 112.5t-123.5 358.5zM403 471q0 -61 9.5 -101t35.5 -72t75 -47t124 -15q76 0 126.5 15t78.5 46.5t39.5 73t11.5 100.5v639q0 59 -9.5 98 t-36 72.5t-78.5 49.5t-132 16q-75 0 -124.5 -16t-75 -49t-35 -73t-9.5 -98v-639z" />
<glyph unicode="&#x41f;" horiz-adv-x="1341" d="M143 0v1581h1057v-1581h-280v1323h-492v-1323h-285z" />
<glyph unicode="&#x420;" horiz-adv-x="1185" d="M143 0v1577h398q289 0 424 -111.5t135 -359.5v-145q0 -243 -138.5 -360.5t-420.5 -117.5h-109v-483h-289zM430 756h111q150 0 211 51.5t61 167.5v117q0 80 -21 127t-80.5 73.5t-166.5 26.5h-115v-563z" />
<glyph unicode="&#x421;" horiz-adv-x="1275" d="M121 467v641q0 252 121 361.5t405 109.5q287 0 413 -113.5t126 -375.5h-283q0 63 -9.5 103.5t-36 73t-78 47.5t-132.5 15q-75 0 -124 -15t-75 -47t-35.5 -72t-9.5 -101v-613q0 -61 9.5 -101t35.5 -72t75 -47t124 -15q146 0 201 58t55 183h283q0 -259 -128.5 -375 t-410.5 -116q-279 0 -402.5 112.5t-123.5 358.5z" />
<glyph unicode="&#x422;" horiz-adv-x="966" d="M16 1329v252h934v-252h-325v-1329h-281v1329h-328z" />
<glyph unicode="&#x423;" horiz-adv-x="1097" d="M25 1581h303l110 -362l119 -398q18 74 61 209t58 189l119 362h297l-445 -1333q-31 -98 -83.5 -158.5t-124.5 -82t-156.5 -14.5t-188.5 40l56 237q91 -19 127 -16q70 9 90 76l41 137z" />
<glyph unicode="&#x424;" horiz-adv-x="1763" d="M121 664v262q0 248 135 358.5t424 110.5h57v196h283v-196h57q288 0 423.5 -111t135.5 -358v-262q0 -243 -138 -356t-421 -113h-55v-201h-287v201h-55q-284 0 -421.5 113t-137.5 356zM408 678q0 -116 62 -170.5t210 -54.5h57v692h-61q-80 0 -133 -15t-82.5 -46.5t-41 -73 t-11.5 -101.5v-231zM1020 453h57q149 0 211 54.5t62 170.5v231q0 60 -11.5 101.5t-40.5 73t-82.5 46.5t-134.5 15h-61v-692z" />
<glyph unicode="&#x425;" horiz-adv-x="1142" d="M18 0l365 797l-336 780h307l105 -256l112 -336l111 330l106 262h308l-336 -780l364 -797h-305l-123 262l-125 342l-133 -360l-114 -244h-306z" />
<glyph unicode="&#x426;" horiz-adv-x="1357" d="M143 0v1581h281v-1329h459v1329h282v-1329h142v-477h-267v225h-897z" />
<glyph unicode="&#x427;" horiz-adv-x="1273" d="M127 995v586h289v-569q0 -92 39 -150.5t103 -79t137 -18t151 26.5v790h287v-1581h-289v520q-91 -19 -177 -21.5t-167 11.5t-148 51.5t-118 94t-79 143.5t-28 196z" />
<glyph unicode="&#x428;" horiz-adv-x="1957" d="M143 0v1581h285v-1329h414v1329h278v-1329h410v1329h287v-1581h-1674z" />
<glyph unicode="&#x429;" horiz-adv-x="2011" d="M143 0v1581h285v-1331h414v1331h276v-1331h412v1331h287v-1331h143v-475h-270v225h-1547z" />
<glyph unicode="&#x42a;" horiz-adv-x="1353" d="M-4 1327v254h600v-485h111q283 0 422 -117.5t139 -360.5v-145q0 -249 -136 -361t-425 -112h-400v1327h-311zM594 254h117q81 0 134 14.5t81.5 46t39.5 72t11 100.5v115q0 117 -60.5 173t-209.5 56h-113v-577z" />
<glyph unicode="&#x42b;" horiz-adv-x="1783" d="M143 0v1581h289v-485h111q282 0 420.5 -117.5t138.5 -360.5v-145q0 -249 -135 -361t-424 -112h-400zM430 254h117q81 0 134 14.5t81.5 46t39.5 72t11 100.5v115q0 117 -61.5 173t-208.5 56h-113v-577zM1360 0v1581h289v-1581h-289z" />
<glyph unicode="&#x42c;" horiz-adv-x="1187" d="M143 0v1581h289v-485h111q282 0 420.5 -117.5t138.5 -360.5v-145q0 -249 -135 -361t-424 -112h-400zM430 254h117q81 0 134 14.5t81.5 46t39.5 72t11 100.5v115q0 117 -61.5 173t-208.5 56h-113v-577z" />
<glyph unicode="&#x42d;" horiz-adv-x="1316" d="M121 489h282q0 -125 56 -184t203 -59q75 0 124 15t74.5 48t35 73t9.5 101v189h-375v254h375v170q0 61 -9.5 101t-35 73t-74.5 48t-124 15q-81 0 -133.5 -15t-79.5 -48.5t-36.5 -74t-9.5 -103.5h-282q0 263 126.5 377t414.5 114q285 0 406.5 -110t121.5 -363v-643 q0 -247 -123.5 -359t-404.5 -112q-284 0 -412.5 116.5t-128.5 376.5z" />
<glyph unicode="&#x42e;" horiz-adv-x="1873" d="M143 -2v1583h285v-670h250v217q0 252 122 361.5t408 109.5t412.5 -110.5t126.5 -360.5v-671q0 -245 -129 -358t-410 -113q-280 0 -405 112.5t-125 358.5v194h-250v-653h-285zM963 473q0 -61 9.5 -101.5t35.5 -73t75.5 -47.5t124.5 -15q76 0 127 15t79 47t39 73.5 t11 101.5v639q0 59 -9.5 98.5t-36 73.5t-78.5 50t-132 16q-75 0 -124.5 -16.5t-75 -50t-35.5 -73.5t-10 -98v-639z" />
<glyph unicode="&#x42f;" horiz-adv-x="1267" d="M92 0l348 600q-144 47 -209 148t-65 276v82q0 249 136 362t425 113h399v-1581h-282v557h-111l-309 -557h-332zM463 1038q0 -117 57.5 -169t206.5 -52h119v504h-123q-81 0 -133 -14t-79.5 -45t-37.5 -70t-10 -100v-54z" />
<glyph unicode="&#x430;" horiz-adv-x="1112" d="M74 326q0 414 653 368q0 143 -38.5 207t-143.5 64q-93 0 -130 -38t-36 -134h-268q-13 219 97.5 320t334.5 101q234 0 343 -116.5t109 -354.5v-743h-229l-27 139q-52 -72 -135 -113.5t-182 -41.5q-155 0 -251.5 88.5t-96.5 253.5zM340 348q0 -106 166 -106 q59 0 101.5 19.5t66.5 55.5t36 75t17 89q-203 21 -295 -17t-92 -116z" />
<glyph unicode="&#x431;" horiz-adv-x="1126" d="M102 459v653q0 125 29.5 210t94.5 136.5t151.5 77.5t216.5 37q4 0 21.5 1.5t22 2t20 2t20.5 3t18 4t19.5 5t17 7t18.5 9.5t17 12t18 15l162 -176q-65 -72 -142 -100.5t-192 -38.5q-38 -3 -58 -5.5t-47.5 -7t-41.5 -10.5t-31.5 -16.5t-25.5 -25t-16.5 -34.5t-11.5 -47 t-3 -61v-65q41 53 112 78.5t150 25.5q188 0 285.5 -111t97.5 -307v-272q0 -244 -116.5 -356.5t-348.5 -112.5q-229 0 -343 112t-114 355zM379 465q0 -114 40 -170.5t140 -56.5q189 0 189 229v233q0 105 -45.5 152t-133.5 47q-92 2 -141 -47.5t-49 -146.5v-240z" />
<glyph unicode="&#x432;" horiz-adv-x="1069" d="M113 0v1192h438q81 0 146 -16t118.5 -50.5t83 -95.5t29.5 -145q0 -80 -38 -141.5t-110 -90.5q97 -21 148 -99t51 -181q0 -92 -24 -159.5t-63.5 -108t-102 -64.5t-128 -32.5t-151.5 -8.5h-397zM391 242h123q96 0 142 26t46 109q0 35 -10 60.5t-26.5 40t-42.5 23t-52 11 t-61 2.5h-119v-272zM391 737h137q63 0 96 33t33 82q0 44 -30.5 77.5t-100.5 33.5h-135v-226z" />
<glyph unicode="&#x433;" horiz-adv-x="847" d="M125 0v1192h684v-250h-406v-942h-278z" />
<glyph unicode="&#x434;" horiz-adv-x="1226" d="M23 -219v467h124q39 45 64.5 103t36 127t13.5 121t3 126v467h797v-944h139v-467h-262v219h-657v-219h-258zM424 248h362v694h-249v-217q0 -310 -113 -477z" />
<glyph unicode="&#x435;" d="M109 467v274q0 230 117 350.5t352 120.5q239 0 354 -114t115 -357v-239h-656v-31q0 -71 13 -118t40 -71t59 -33t79 -9q188 0 188 131h277q0 -190 -115.5 -282.5t-353.5 -92.5q-239 0 -354 114t-115 357zM391 733h383q0 125 -37.5 180.5t-150.5 55.5q-61 0 -100.5 -15.5 t-59.5 -49t-27.5 -73t-7.5 -98.5z" />
<glyph unicode="&#x436;" horiz-adv-x="1683" d="M16 0l394 621q-14 11 -27.5 26.5t-21.5 26t-21 34t-16.5 30.5t-18 38t-16.5 35q-10 21 -15.5 31.5t-14.5 27.5t-15 25t-16 20t-18.5 17t-21 11.5t-25.5 8t-29.5 1.5t-35.5 -3l-14 238q45 6 85 5.5t70 -3t60 -17t48 -22t41 -32t32.5 -33.5t28.5 -41.5t23.5 -40t22.5 -43.5 l3.5 -7l3.5 -7t4 -7q6 -12 21 -43.5t21.5 -44.5t22 -35.5t29 -32t35 -18t47.5 -8.5h16v432h275v-432h16q26 0 47.5 8t35.5 18.5t28.5 31.5t22 36.5t21 43.5t21.5 44q53 99 71 125q77 109 207 126q64 8 146 -3l-16 -238q-40 7 -69.5 1t-51.5 -28t-36 -45.5t-34 -66.5 q-5 -10 -19.5 -42t-21 -45t-19.5 -35.5t-27 -38t-31 -29.5l393 -621h-309l-318 506h-57v-506h-275v506h-55l-319 -506h-308z" />
<glyph unicode="&#x437;" horiz-adv-x="987" d="M82 365h278q0 -69 36.5 -99t90.5 -30t91 36t36 103q0 65 -26.5 97.5t-91.5 31.5h-129v233h133q50 0 78 33t28 82q0 57 -28.5 92t-85.5 35t-89 -28.5t-32 -84.5h-271q0 186 103 266t291 80q179 0 279.5 -87t100.5 -261q0 -76 -32.5 -138t-102.5 -97q54 -18 90.5 -65.5 t50.5 -101.5t13 -112q-3 -173 -101 -270.5t-307 -97.5q-201 0 -302 94t-101 289z" />
<glyph unicode="&#x438;" d="M119 0v1190h276v-694l164 303l225 391h258v-1190h-274v696l-147 -270l-244 -426h-258z" />
<glyph unicode="&#x439;" d="M119 0v1190h276v-694l164 303l225 391h258v-1190h-274v696l-147 -270l-244 -426h-258zM246 1587h221q1 -59 33 -80.5t94 -21.5q61 0 91 22t30 80h227q-3 -164 -84.5 -235.5t-263.5 -71.5t-263.5 71.5t-84.5 235.5z" />
<glyph unicode="&#x43a;" horiz-adv-x="1120" d="M115 0v1190h276v-432h41q17 0 32 2.5t29 10.5t23.5 13.5t22 20.5t18.5 21.5t18 27t15 26.5t16 31t15 29q52 99 71 127q77 110 211 125q62 7 139 -4l-14 -238q-42 7 -71 1t-51 -28.5t-34.5 -44.5t-33.5 -67q-64 -134 -131 -190l403 -621h-307l-332 506h-80v-506h-276z" />
<glyph unicode="&#x43b;" horiz-adv-x="1169" d="M12 -2l11 248q42 -3 75.5 5t56.5 25.5t41 42.5t28 55.5t17 65t9 71t3.5 73.5t0.5 72t0 67l6 467h797v-1190h-279v948h-254l-4 -229q-1 -105 -5.5 -180t-18 -160t-35 -142t-59.5 -111t-90.5 -82.5t-128 -42t-171.5 -3.5z" />
<glyph unicode="&#x43c;" horiz-adv-x="1409" d="M121 0v1190h280l308 -594l317 594h270v-1190h-278v303l33 402l-287 -551h-109l-286 551l32 -402v-303h-280z" />
<glyph unicode="&#x43d;" horiz-adv-x="1157" d="M121 0v1190h276v-449h373v449h274v-1190h-274v500h-373v-500h-276z" />
<glyph unicode="&#x43e;" horiz-adv-x="1142" d="M102 451v290q0 238 116 354.5t353 116.5q239 0 354 -114t115 -357v-290q0 -243 -115 -357t-354 -114t-354 114t-115 357zM385 465q0 -120 40.5 -178t145.5 -58t146 58t41 178v262q0 120 -41 178t-146 58t-145.5 -58t-40.5 -178v-262z" />
<glyph unicode="&#x43f;" horiz-adv-x="1157" d="M121 0v1190h923v-1190h-274v948h-373v-948h-276z" />
<glyph unicode="&#x440;" horiz-adv-x="1193" d="M135 -367v1575h232l20 -131q36 66 110 103t175 37q188 0 292.5 -112.5t104.5 -354.5v-312q0 -216 -103 -333t-302 -117q-186 0 -248 106v-461h-281zM416 449q0 -201 182 -201q94 0 142 48.5t48 154.5v284q0 125 -47 178.5t-135 53.5q-99 0 -144.5 -65t-45.5 -177v-276z " />
<glyph unicode="&#x441;" horiz-adv-x="1132" d="M102 457v270q0 485 478 485q240 0 350 -106t110 -348h-266q0 106 -43 155.5t-145 49.5q-112 0 -156.5 -58.5t-44.5 -177.5v-262q0 -120 40.5 -178t145.5 -58q109 0 155 49t48 158h266q0 -241 -114 -348.5t-355 -107.5q-240 0 -354.5 115t-114.5 362z" />
<glyph unicode="&#x442;" horiz-adv-x="845" d="M10 948v242h819v-242h-274v-948h-274v948h-271z" />
<glyph unicode="&#x443;" horiz-adv-x="1044" d="M31 1208h293l108 -362q58 -233 94 -508q45 306 95 508l106 362h293l-358 -1194h2l-66 -233q-38 -133 -105.5 -195.5t-158 -60.5t-207.5 47l43 207q6 -1 26.5 -6t28 -6.5t25 -3.5t25.5 -0.5t21 6t20.5 13t16 23t13.5 33.5l47 170z" />
<glyph unicode="&#x444;" horiz-adv-x="1671" d="M102 434v328q0 442 377 442q63 0 128.5 -27.5t92.5 -76.5v454h271v-454q27 49 92.5 76.5t130.5 27.5q102 0 176 -33t116.5 -94t62.5 -139t20 -176v-328q0 -98 -20 -176.5t-62.5 -140.5t-116.5 -95.5t-176 -33.5q-64 0 -130 28.5t-93 77.5v-452h-271v452 q-27 -49 -92.5 -77.5t-128.5 -28.5q-83 0 -147.5 22.5t-107.5 61.5t-70.5 96t-39.5 122.5t-12 143.5zM373 444q0 -91 40.5 -144.5t129.5 -53.5q157 0 157 198v308q0 98 -41 147t-116 49q-170 0 -170 -198v-306zM971 444q0 -198 157 -198q89 0 129.5 53.5t40.5 144.5v306 q0 198 -170 198q-75 0 -116 -49t-41 -147v-308z" />
<glyph unicode="&#x445;" horiz-adv-x="1079" d="M18 0l365 614l-350 594h295l110 -186q22 -37 58 -110.5t45 -100.5q12 33 47.5 106t58.5 111l107 180h290l-350 -592l369 -616h-299l-107 180q-52 81 -118 238q-18 -45 -58.5 -124.5t-64.5 -117.5l-105 -176h-293z" />
<glyph unicode="&#x446;" horiz-adv-x="1218" d="M121 0v1190h274v-948h357v948h276v-948h141v-465h-262v223h-786z" />
<glyph unicode="&#x447;" horiz-adv-x="1105" d="M90 772v418h277v-385q0 -106 42 -152.5t130 -48.5q178 0 178 199v387h276v-1190h-276v457q-87 -105 -252 -105q-188 0 -281.5 111t-93.5 309z" />
<glyph unicode="&#x448;" horiz-adv-x="1630" d="M121 0v1190h276v-948h287v948h270v-948h287v948h277v-1190h-1397z" />
<glyph unicode="&#x449;" horiz-adv-x="1705" d="M121 0v1190h276v-948h287v948h272v-948h285v948h277v-948h139v-465h-262v223h-1274z" />
<glyph unicode="&#x44a;" horiz-adv-x="1275" d="M2 946v244h541v-334h190q229 0 340 -103.5t117 -326.5q0 -58 -3 -80q-23 -185 -165 -275q-112 -71 -291 -71h-467v946h-262zM543 240h190q93 0 136.5 50.5t43.5 135.5q0 91 -45.5 140.5t-134.5 49.5h-190v-376z" />
<glyph unicode="&#x44b;" horiz-adv-x="1642" d="M121 0v1190h274v-334h191q233 0 345 -103.5t118 -326.5q0 -62 -5 -95q-31 -188 -186 -272q-109 -59 -272 -59h-465zM395 240h191q184 0 184 186q0 190 -184 190h-191v-376zM1255 0v1190h275v-1190h-275z" />
<glyph unicode="&#x44c;" horiz-adv-x="1122" d="M123 0v1190h274v-334h191q233 0 345 -103.5t118 -326.5q0 -62 -5 -95q-31 -188 -186 -272q-109 -59 -272 -59h-465zM397 240h191q184 0 184 186q0 190 -184 190h-191v-376z" />
<glyph unicode="&#x44d;" horiz-adv-x="1130" d="M102 428h263q2 -106 47.5 -154.5t150.5 -48.5q59 0 97 18t56.5 53.5t25 74.5t6.5 96h-263v244h263q0 117 -42 176t-155 59q-99 0 -142.5 -49t-43.5 -152h-263q0 239 109 344t346 105q471 0 471 -477v-268q0 -243 -113.5 -356t-351.5 -113q-237 0 -349 106t-112 342z" />
<glyph unicode="&#x44e;" horiz-adv-x="1579" d="M129 0v1190h274v-449h175q0 226 114.5 343.5t341.5 117.5q451 0 451 -463v-288q0 -231 -110.5 -347t-340.5 -116q-456 0 -456 463v49h-175v-500h-274zM860 463q0 -114 38.5 -172t135.5 -58q96 0 135 58.5t39 171.5v262q0 114 -39 171.5t-135 57.5q-98 0 -136 -57 t-38 -172v-262z" />
<glyph unicode="&#x44f;" horiz-adv-x="1112" d="M51 0l246 422q-98 54 -144.5 135t-46.5 209q0 100 28 175t75 122t119 76t150 40t177 11h344v-1190h-274v344h-70q-34 0 -80 4l-198 -348h-326zM397 766q0 -34 9.5 -61t23.5 -44t37.5 -29t43.5 -18t50 -9.5t47.5 -4t46.5 -0.5h70v332h-70h-9h-43.5t-40.5 -1.5t-39.5 -4.5 t-34 -8.5t-31.5 -14t-24.5 -21t-20 -28.5t-11 -38.5t-4.5 -49.5z" />
<glyph unicode="&#x451;" d="M109 467v274q0 230 117 350.5t352 120.5q239 0 354 -114t115 -357v-239h-656v-31q0 -71 13 -118t40 -71t59 -33t79 -9q188 0 188 131h277q0 -190 -115.5 -282.5t-353.5 -92.5q-239 0 -354 114t-115 357zM223 1452q0 50 30 85t72.5 44t85.5 1.5t73 -43t30 -87.5 q0 -49 -30 -83.5t-72.5 -43.5t-85.5 -2t-73 42t-30 87zM391 733h383q0 125 -37.5 180.5t-150.5 55.5q-61 0 -100.5 -15.5t-59.5 -49t-27.5 -73t-7.5 -98.5zM659 1452q0 50 30 85t72.5 44t84.5 1.5t72 -43t30 -87.5q0 -49 -30 -83.5t-72 -43.5t-84.5 -2t-72.5 42t-30 87z" />
<glyph unicode="&#x452;" horiz-adv-x="1142" d="M-12 1282v186h125v115h280v-115h209v-186h-209v-199q86 107 254 107q191 0 287 -112.5t96 -313.5v-698q0 -90 -10 -157.5t-33 -118.5t-56.5 -84t-84.5 -53.5t-113.5 -29t-146.5 -8.5v240q49 0 75.5 5.5t49.5 26t31 61.5t8 111v672q0 107 -43.5 154t-133.5 49 q-180 0 -180 -201v-733h-280v1282h-125z" />
<glyph unicode="&#x453;" horiz-adv-x="849" d="M125 0v1192h684v-250h-406v-942h-278zM330 1313l116 278h267l-156 -278h-227z" />
<glyph unicode="&#x454;" horiz-adv-x="1130" d="M102 449v268q0 477 471 477q237 0 346 -105t109 -344h-262q0 103 -43.5 152t-142.5 49q-113 0 -155 -59t-42 -176h262v-244h-262q0 -57 6.5 -96t24.5 -74.5t56 -53.5t97 -18q106 0 151.5 48.5t47.5 154.5h262q0 -236 -112 -342t-349 -106q-238 0 -351.5 113t-113.5 356z " />
<glyph unicode="&#x455;" horiz-adv-x="1067" d="M78 373h284q5 -66 47.5 -99.5t139.5 -33.5q80 0 125 37t45 85q0 17 -4 30.5t-15 24t-21 18.5t-29.5 14.5t-33 10.5t-40 8t-42 6t-47 5.5t-47.5 5.5q-346 45 -346 336q0 132 60.5 222t161 130.5t235.5 40.5q214 0 326 -107t112 -278h-274q0 66 -45 100t-117 34 q-83 0 -128.5 -32.5t-45.5 -94.5q0 -28 7.5 -48.5t24.5 -33.5t34.5 -21t48.5 -12.5t54.5 -7t64.5 -5.5t67 -6q64 -7 119.5 -29.5t102.5 -60.5t74.5 -100t27.5 -139q0 -127 -63.5 -214.5t-166.5 -126t-237 -38.5q-214 0 -336.5 102t-122.5 277z" />
<glyph unicode="&#x456;" horiz-adv-x="573" d="M129 1452q0 43 17.5 76.5t45.5 51t61.5 25.5t67.5 -0.5t62 -25.5t45.5 -50.5t17.5 -76.5q0 -42 -17.5 -75.5t-45.5 -50.5t-61.5 -25t-67.5 0t-62 25t-45.5 50t-17.5 76zM145 -2v1184h281v-1184h-281z" />
<glyph unicode="&#x457;" horiz-adv-x="532" d="M-86 1458q0 40 16.5 71.5t43 48t58.5 24.5t64.5 1t59 -23.5t43 -48.5t16.5 -73q0 -38 -16.5 -69t-43 -47.5t-58.5 -24.5t-64.5 -1t-59 22.5t-43 47t-16.5 72.5zM125 -2v1184h281v-1184h-281zM313 1458q0 55 31 93.5t75.5 48t88.5 1t75 -47t31 -95.5q0 -38 -16.5 -69 t-43 -47.5t-58.5 -24.5t-64.5 -1t-59 22.5t-43 47t-16.5 72.5z" />
<glyph unicode="&#x458;" horiz-adv-x="585" d="M2 -145q49 0 75.5 5.5t49.5 26t31 61.5t8 111v1133h280v-1126q0 -90 -10 -157.5t-33 -118.5t-56.5 -84t-84.5 -53.5t-113.5 -29t-146.5 -8.5v240zM150 1452q0 43 17.5 76.5t45.5 51t61.5 25.5t67.5 -0.5t62 -25.5t45.5 -50.5t17.5 -76.5q0 -42 -17.5 -75.5t-45.5 -50.5 t-61.5 -25t-67.5 0t-62 25t-45.5 50t-17.5 76z" />
<glyph unicode="&#x459;" horiz-adv-x="1640" d="M12 -2l11 248q42 -3 75.5 5t56.5 25.5t41 42.5t28 55.5t17 65t9 71t3.5 73.5t0.5 72t0 67l6 467h741v-412h105q239 0 351 -88.5t112 -302.5v-33t-4 -44t-11 -55.5t-22.5 -57.5t-37.5 -60t-58 -52t-81 -45t-109 -28.5t-140 -11.5h-379v948h-203l-4 -229q-1 -105 -5.5 -180 t-18 -160t-35 -142t-59.5 -111t-90.5 -82.5t-128 -42t-171.5 -3.5zM1001 240h105q102 0 144 33.5t42 113.5q0 83 -44.5 117.5t-141.5 34.5h-105v-299z" />
<glyph unicode="&#x45a;" horiz-adv-x="1617" d="M121 0v1190h276v-418h308v418h274v-412h104q239 0 351 -88.5t112 -302.5v-33t-4 -44t-11 -55.5t-22.5 -57.5t-37.5 -60t-58 -52t-81 -45t-109 -28.5t-140 -11.5h-378v530h-308v-530h-276zM979 240h104q102 0 144.5 33.5t42.5 113.5q0 83 -44.5 117.5t-142.5 34.5h-104 v-299z" />
<glyph unicode="&#x45b;" horiz-adv-x="1142" d="M-12 1282v186h125v115h280v-115h209v-186h-209v-199q86 107 254 107q191 0 287 -112.5t96 -313.5v-764h-280v731q0 107 -43.5 154t-133.5 49q-180 0 -180 -201v-733h-280v1282h-125z" />
<glyph unicode="&#x45c;" horiz-adv-x="1120" d="M115 0v1190h276v-432h41q17 0 32 2.5t29 10.5t23.5 13.5t22 20.5t18.5 21.5t18 27t15 26.5t16 31t15 29q52 99 71 127q77 110 211 125q62 7 139 -4l-14 -238q-42 7 -71 1t-51 -28.5t-34.5 -44.5t-33.5 -67q-64 -134 -131 -190l403 -621h-307l-332 506h-80v-506h-276z M442 1315l117 278h277l-156 -278h-238z" />
<glyph unicode="&#x45e;" horiz-adv-x="1044" d="M31 1196h293l108 -362q58 -233 94 -508q45 306 95 508l106 362h293l-358 -1194h2l-66 -233q-38 -133 -105.5 -195.5t-158 -60.5t-207.5 47l43 207q6 -1 26.5 -6t28 -6.5t25 -3.5t25.5 -0.5t21 6t20.5 13t16 23t13.5 33.5l47 170zM201 1610h209q1 -56 31.5 -76.5 t88.5 -20.5t86.5 21t28.5 76h215q-3 -155 -80.5 -223t-249.5 -68t-249 68t-80 223z" />
<glyph unicode="&#x45f;" horiz-adv-x="1157" d="M119 0v1190h274v-948h373v948h276v-1190h-327v-213h-254v213h-342z" />
<glyph unicode="&#x490;" horiz-adv-x="983" d="M143 0v1581h537v227h254v-487h-510v-1321h-281z" />
<glyph unicode="&#x491;" horiz-adv-x="847" d="M125 0v1190h436v176h248v-426h-406v-940h-278z" />
<glyph unicode="&#x2000;" horiz-adv-x="997" />
<glyph unicode="&#x2001;" horiz-adv-x="1995" />
<glyph unicode="&#x2002;" horiz-adv-x="997" />
<glyph unicode="&#x2003;" horiz-adv-x="1995" />
<glyph unicode="&#x2004;" horiz-adv-x="665" />
<glyph unicode="&#x2005;" horiz-adv-x="498" />
<glyph unicode="&#x2006;" horiz-adv-x="332" />
<glyph unicode="&#x2007;" horiz-adv-x="332" />
<glyph unicode="&#x2008;" horiz-adv-x="249" />
<glyph unicode="&#x2009;" horiz-adv-x="399" />
<glyph unicode="&#x200a;" horiz-adv-x="110" />
<glyph unicode="&#x2010;" horiz-adv-x="1081" d="M125 578v235h842v-235h-842z" />
<glyph unicode="&#x2011;" horiz-adv-x="1081" d="M125 578v235h842v-235h-842z" />
<glyph unicode="&#x2012;" horiz-adv-x="1081" d="M125 578v235h842v-235h-842z" />
<glyph unicode="&#x2013;" horiz-adv-x="1255" d="M158 578v235h940v-235h-940z" />
<glyph unicode="&#x2014;" horiz-adv-x="1458" d="M158 578v235h1142v-235h-1142z" />
<glyph unicode="&#x2018;" horiz-adv-x="600" d="M121 1190l131 391h242l-95 -391h-278z" />
<glyph unicode="&#x2019;" horiz-adv-x="587" d="M125 1188l94 391h279l-131 -391h-242z" />
<glyph unicode="&#x201a;" horiz-adv-x="401" d="M-4 -195q29 21 47.5 44t28.5 41t14 49t4 49t-1 61t-1 66h238q15 -179 -45 -288t-201 -163z" />
<glyph unicode="&#x201c;" horiz-adv-x="903" d="M92 1190l125 389h225l-88 -389h-262zM446 1190l123 389h228l-88 -389h-263z" />
<glyph unicode="&#x201d;" horiz-adv-x="923" d="M129 1190l88 389h262l-123 -389h-227zM483 1190l88 389h263l-125 -389h-226z" />
<glyph unicode="&#x201e;" horiz-adv-x="722" d="M-4 -195q29 21 47.5 44t28.5 41t14 49t4 49t-1 61t-1 66h238q15 -179 -45 -288t-201 -163zM360 -195q29 21 47.5 44t28.5 41t14.5 49.5t4.5 48.5t-1 61t-1 66h237q15 -179 -45 -288t-201 -163z" />
<glyph unicode="&#x2020;" horiz-adv-x="1054" d="M53 506v282h307v490h285v-490h342v-282h-342v-846h-285v846h-307z" />
<glyph unicode="&#x2021;" horiz-adv-x="1103" d="M63 305v279h326v202h-326v279h326v510h74h211v-510h323v-279h-323v-202h323v-279h-323v-653h-285v653h-326z" />
<glyph unicode="&#x2022;" horiz-adv-x="804" d="M186 682q0 94 61 153.5t156 59.5q92 0 152.5 -59.5t60.5 -155.5q0 -94 -60.5 -152.5t-152.5 -58.5q-95 0 -156 59.5t-61 153.5z" />
<glyph unicode="&#x2026;" horiz-adv-x="1478" d="M66 147q0 43 17.5 76.5t45.5 51t61.5 25.5t67.5 -0.5t62 -25.5t45.5 -50.5t17.5 -76.5q0 -42 -17.5 -75.5t-45.5 -50.5t-61.5 -25t-67.5 0t-62 25t-45.5 50t-17.5 76zM559 147q0 43 17.5 76.5t45.5 51t62 25.5t68 -0.5t62 -25.5t45.5 -50.5t17.5 -76.5q0 -58 -33 -98.5 t-79.5 -50t-93 0t-79.5 49.5t-33 99zM1049 147q0 50 23.5 86.5t58.5 53t76.5 16t76.5 -17t58.5 -53t23.5 -85.5t-23.5 -85t-58.5 -52.5t-76.5 -16.5t-76.5 16t-58.5 52.5t-23.5 85.5z" />
<glyph unicode="&#x202f;" horiz-adv-x="399" />
<glyph unicode="&#x2030;" horiz-adv-x="2381" d="M61 1112v176q0 154 73.5 228.5t225.5 74.5q156 0 230 -73.5t74 -229.5v-176q0 -156 -74 -229.5t-230 -73.5q-153 0 -226 73.5t-73 229.5zM272 1143q0 -59 19 -87t69 -28q52 0 71.5 28t19.5 87v117q0 59 -19.5 85.5t-71.5 26.5q-50 0 -69 -26.5t-19 -85.5v-117zM457 0 l456 1606l277 -27l-459 -1608zM1010 303v176q0 154 73.5 228.5t225.5 74.5q156 0 229.5 -73.5t73.5 -229.5v-176q0 -156 -73.5 -229.5t-229.5 -73.5q-153 0 -226 73.5t-73 229.5zM1221 334q0 -59 19 -87t69 -28q51 0 70.5 28t19.5 87v117q0 59 -19 85.5t-71 26.5 q-50 0 -69 -26.5t-19 -85.5v-117zM1714 303v176q0 154 73.5 228.5t225.5 74.5q156 0 229.5 -73.5t73.5 -229.5v-176q0 -156 -73.5 -229.5t-229.5 -73.5q-153 0 -226 73.5t-73 229.5zM1925 334q0 -59 19 -87t69 -28q51 0 70.5 28t19.5 87v117q0 59 -19 85.5t-71 26.5 q-50 0 -69 -26.5t-19 -85.5v-117z" />
<glyph unicode="&#x2039;" horiz-adv-x="774" d="M100 680l289 461h281l-287 -463l287 -461h-281z" />
<glyph unicode="&#x203a;" horiz-adv-x="778" d="M109 217l286 461l-286 463h280l289 -461l-289 -463h-280z" />
<glyph unicode="&#x2044;" horiz-adv-x="258" d="M-348 -6l704 1593h258l-704 -1593h-258z" />
<glyph unicode="&#x205f;" horiz-adv-x="498" />
<glyph unicode="&#x20ac;" horiz-adv-x="1081" d="M55 567v162h135v105h-135v161h135v179q0 86 39.5 162.5t104.5 129.5t149.5 84t173.5 31h123q146 0 252 -65l-127 -224q-61 27 -87 30t-161 3q-186 0 -186 -186v-144h410v-161h-410v-105h410v-162h-410v-112q0 -83 54 -143t132 -60h123q84 0 142 41l120 -223 q-130 -76 -262 -76h-123q-199 0 -333 112t-134 302v159h-135z" />
<glyph unicode="&#x2122;" horiz-adv-x="1087" d="M51 1446v137h387v-137h-123v-524h-141v524h-123zM494 920v665h147l115 -219l102 219h156v-665h-142v227l2 121l-94 -236h-49l-98 234q2 -23 2 -119v-227h-141z" />
<glyph unicode="&#xe000;" horiz-adv-x="1208" d="M0 0v1208h1208v-1208h-1208z" />
<glyph unicode="&#xfb01;" horiz-adv-x="1159" d="M121 -2v1188q0 206 128.5 320t377.5 96l2 -242q-123 8 -175.5 -31t-52.5 -147v-6h625v-1178h-281v930h-344v-930h-280zM729 1452q0 43 17.5 76.5t45.5 51t62 25.5t68 -0.5t62 -25.5t45.5 -50.5t17.5 -76.5q0 -58 -33 -98.5t-79.5 -50t-93 0t-79.5 49.5t-33 99z" />
<glyph unicode="&#xfb02;" horiz-adv-x="1241" d="M121 -2v1169q0 106 30.5 190.5t93 145.5t165.5 86t239 8v-247q-134 22 -191 -28t-57 -159v-63h226v-258h-226v-844h-280zM762 442v1137h280v-1133q0 -102 28 -139t114 -37v-270q-167 0 -256 39t-127.5 133t-38.5 270z" />
</font>
</defs>
</svg>
