<?xml version="1.0" standalone="no"?>
<!DOCTYPE svg PUBLIC "-//W3C//DTD SVG 1.1//EN" "http://www.w3.org/Graphics/SVG/1.1/DTD/svg11.dtd">
<svg xmlns="http://www.w3.org/2000/svg">
<metadata>Generated by Fontastic.me</metadata>
<defs>
<font id="travel" horiz-adv-x="512">
<font-face font-family="travel" units-per-em="512" ascent="480" descent="-32"/>
<missing-glyph horiz-adv-x="512" />

<glyph unicode="&#97;" d="M338 0c-3 0-6 1-8 3l-29 29c-3 3-4 7-3 11l26 91c-27 21-57 46-90 74l-126-175c-1-2-4-4-7-4-4 0-7 1-9 3l-43 43c-3 3-4 8-2 12l89 213c-3 3-6 6-9 9-53 53-90 96-109 127-8 12-30 48-10 68 4 4 10 8 21 8 32 0 89-42 174-127 3-3 6-6 9-9l213 89c4 2 9 1 12-2l43-43c2-2 3-5 3-9 0-3-2-6-4-7l-175-126c28-32 53-63 74-90l91 26c4 1 8 0 11-3l29-29c2-2 3-6 3-9 0-3-2-6-5-8l-80-50c5-12 7-23 0-30-4-4-13-7-30 0l-50-80c-2-3-5-5-8-5-1 0-1 0-1 0z m-18 43l16-15 49 77c3 4 9 6 14 3 4-2 7-3 9-4-1 2-2 5-4 9-3 5-1 11 3 14l77 49-15 16-92-26c-4-1-9 0-12 4-22 30-52 65-85 102-2 2-3 5-3 8 1 3 2 6 5 8l174 126-29 29-213-89c-4-2-9-1-12 2-5 5-9 9-14 14-105 105-145 121-159 121-4 0-5-2-6-2-4-4-2-17 13-41 19-31 54-72 106-124 5-5 9-9 14-14 3-3 4-8 2-12l-89-213 29-29 126 174c2 3 4 4 7 5 3 0 6-1 9-3 37-33 73-63 102-85 4-3 5-8 4-12z"/>
<glyph unicode="&#98;" d="M173 161c0-20-15-36-34-36-20 0-35 16-35 36 0 21 15 37 35 37 19 0 34-16 34-37z m235 0c0-20-15-36-35-36-19 0-34 16-34 36 0 21 15 37 34 37 20 0 35-16 35-37z m-119-10l-66 0c-6 0-11 5-11 10 0 6 5 11 11 11l66 0c6 0 11-5 11-11 0-5-5-10-11-10z m-176-151c-6 0-11 5-11 11l0 44c0 6 5 10 11 10 5 0 10-4 10-10l0-44c0-6-5-11-10-11z m286 0c-5 0-10 5-10 11l0 44c0 6 5 10 10 10 6 0 11-4 11-10l0-44c0-6-5-11-11-11z m1 56l-288 0c-35 0-64 34-64 76l0 304c0 42 29 76 64 76l288 0c35 0 64-34 64-76l0-304c0-42-29-76-64-76z m-288 435c-23 0-42-25-42-55l0-304c0-30 19-55 42-55l288 0c24 0 42 25 42 55l0 304c0 30-18 55-42 55z m331-246l-374 0c-6 0-11 4-11 10 0 6 5 11 11 11l374 0c6 0 11-5 11-11 0-6-5-10-11-10z m-187 0c-6 0-11 4-11 10l0 246c0 6 5 11 11 11 6 0 11-5 11-11l0-246c0-6-5-10-11-10z m-245 69c-6 0-11 5-11 11l0 108c0 6 5 11 11 11 6 0 10-5 10-11l0-108c0-6-4-11-10-11z m490 0c-6 0-10 5-10 11l0 108c0 6 4 11 10 11 6 0 11-5 11-11l0-108c0-6-5-11-11-11z"/>
<glyph unicode="&#99;" d="M303 0l-126 0c-24 0-43 19-43 43l-4 314c0 3 1 5 3 8 2 2 5 3 8 3l198 0c3 0 6-1 8-3 2-3 3-5 3-8l-4-314c0-24-20-43-43-43z m-152 346l4-303c0-12 10-22 22-22l126 0c12 0 22 10 22 22l3 303-177 0z m91-97c-4 0-7 2-9 6l-102 181-33-12c-6-2-12 1-14 6-2 6 1 12 7 14l41 15c5 1 10-1 13-5l106-189c3-5 1-12-4-14-1-1-3-2-5-2z m96 0l-192 0c-6 0-10 5-10 11 0 6 4 10 10 10l192 0c6 0 11-4 11-10 0-6-5-11-11-11z m80 116c-2 0-3 0-4 1l-188 67c-5 2-8 7-6 13 0 1 1 3 2 5 40 46 83 59 132 42 48-18 73-56 75-116 0-2-1-4-2-6-1-2-3-4-5-5-1 0-3-1-4-1z m-169 83l157-57c-5 43-24 69-60 82-35 12-67 5-97-25z m22-196c-1 0-2 0-4 1-5 2-8 8-6 13l53 147c2 6 8 9 13 7 6-2 9-8 7-14l-53-147c-2-4-6-7-10-7z m79 220c-1 0-2 0-4 1-5 2-8 8-6 13l7 19c2 6 8 8 13 6 6-2 9-8 7-13l-7-19c-1-4-6-7-10-7z m-65-54c-3 0-6 1-8 3-4 4-4 11 0 15l55 54c4 4 11 4 15 0 4-4 4-11 0-15l-55-54c-2-2-4-3-7-3z m78-27c-5 0-10 4-10 9l-7 78c0 6 4 11 10 12 6 0 11-4 11-10l7-78c1-6-4-11-10-11 0 0 0 0-1 0z m-145-248c-5 0-9 2-10 6l-18 43c-1 3-1 6 0 8 1 3 3 5 6 6l42 18c6 2 12 0 14-6l18-43c3-5 0-11-6-13l-42-18c-2-1-3-1-4-1z m-4 48l9-24 23 10-9 23z m55-143c-1 0-3 0-4 0l-43 18c-6 2-8 8-6 13l17 44c1 2 3 4 6 5 2 2 5 2 8 1l43-18c3-1 5-3 6-5 1-3 1-6 0-9l-17-43c-2-4-6-6-10-6z m-29 33l23-9 9 23-23 10z"/>
<glyph unicode="&#100;" d="M80 96c-1 0-2 0-4 0-89 33-76 157-75 163 1 5 5 9 11 9l36 0 0 115c0 6 5 11 11 11l230 0c6 0 11-5 11-11l0-76 53 0c6 0 10-5 10-11l0-33 138 0c4 0 7-2 9-5 2-3 3-7 1-10-24-55-133-146-137-150-5-3-12-3-15 2-4 4-4 11 1 15 1 0 90 75 123 127l-130 0c-6 0-11 5-11 11l0 32-53 0c-6 0-11 5-11 11l0 76-209 0 0-115c0-6-4-10-10-10l-37 0c-2-28 1-108 62-131 5-2 8-8 6-13-2-5-6-7-10-7z m-48-57c-5 0-9 3-11 8-1 5 2 11 8 13 4 2 12 15 16 21 3 5 6 10 9 14l2 2c10 12 18 22 35 29 32 13 69 7 107-17 11-6 23-13 35-12 11 0 20 6 30 12 4 3 8 6 12 8 13 6 29 14 47 12 12-1 19-6 26-10 3-2 5-4 8-6 12-5 26-5 39-5 0 0 0 0 0 0 12 0 24 5 35 12 14 7 28 15 46 14 6 0 10-5 10-11 0-6-6-11-11-10-11 0-23-6-35-12-13-7-27-15-45-15 0 0 0 0 0 0-15 0-33 0-49 9-3 2-7 4-10 6-6 4-10 6-16 7-12 1-24-4-34-10-4-2-8-4-11-7-12-7-25-15-41-16-18 0-34 8-47 16-33 20-62 25-88 15-12-5-18-12-27-22l-2-3c-2-2-4-7-7-11-9-14-17-27-28-31-1 0-2 0-3 0z m233-39c-14 0-29 4-41 6l-2 1c-6 1-12 3-18 5-11 4-24 8-32 8-6 0-11 4-12 10 0 6 4 11 10 11 13 1 28-4 41-8 5-2 11-4 16-5l2-1c14-3 29-7 41-5 11 1 22 7 34 14 9 5 19 10 30 14 17 5 41 7 63 4 10-1 18-4 27-7 11-3 21-7 30-6 6 1 11-4 12-9 1-6-4-11-10-12-13-2-26 3-39 7-8 3-15 5-22 6-19 2-40 1-55-4-8-2-17-7-26-12-12-7-26-15-41-17-3 0-6 0-8 0z m-34 372c-6 0-11 5-11 11l0 75c0 6 5 10 11 10 6 0 11-4 11-10l0-75c0-6-5-11-11-11z m-20 99c-3 0-6 1-8 4-1 1-3 3-4 5-5 6-9 10-14 10-5 1-5 1-10-3-2-2-4-3-6-5-11-8-24-11-41-10-11 2-17 6-22 10-3 2-6 4-9 6-6 2-8 9-5 14 2 5 8 8 14 5 5-2 9-5 12-8 5-3 7-5 12-5 12-2 20 0 26 5 2 1 3 3 5 4 6 5 13 11 28 8 13-2 20-11 26-18 1-1 3-3 4-4 4-4 4-11-1-15-2-2-4-3-7-3z m-100-188c-6 0-11 5-11 11l0 35c0 5 5 10 11 10 6 0 10-5 10-10l0-35c0-6-4-11-10-11z m60 0c-6 0-11 5-11 11l0 35c0 5 5 10 11 10 6 0 11-5 11-10l0-35c0-6-5-11-11-11z m60 0c-6 0-11 5-11 11l0 35c0 5 5 10 11 10 6 0 11-5 11-10l0-35c0-6-5-11-11-11z m194-92l-374 0c-6 0-11 5-11 11 0 6 5 11 11 11l374 0c6 0 10-5 10-11 0-6-5-11-10-11z"/>
<glyph unicode="&#101;" d="M501 228l-490 0c-6 0-11 4-11 10 0 128 115 233 256 233 141 0 256-105 256-233 0-6-5-10-11-10z m-479 21l468 0c-6 111-109 200-234 200-125 0-228-89-234-200z m116-21c-6 0-11 4-11 10 0 1-10 158 119 223 5 3 12 1 14-4 3-6 1-12-4-15-117-59-108-201-108-203 1-6-4-11-10-11 0 0 0 0 0 0z m236 0c0 0 0 0 0 0-6 0-11 5-10 11 0 2 9 145-108 203-5 3-7 9-4 15 2 5 9 7 14 4 129-65 119-222 119-223 0-6-5-10-11-10z m-123-228c-6 0-11 5-11 11l0 227c0 6 5 11 11 11 6 0 10-5 10-11l0-227c0-6-4-11-10-11z m0 441c-6 0-11 5-11 11l0 49c0 6 5 11 11 11 6 0 10-5 10-11l0-49c0-6-4-11-10-11z m86-441l-172 0c-6 0-11 5-11 11 0 6 5 10 11 10l172 0c6 0 11-4 11-10 0-6-5-11-11-11z"/>
<glyph unicode="&#102;" d="M256 173c-49 0-90 41-90 90 0 50 41 90 90 90 49 0 90-40 90-90 0-49-41-90-90-90z m0 158c-38 0-68-30-68-68 0-38 30-68 68-68 38 0 68 30 68 68 0 38-30 68-68 68z m245 0l-490 0c-6 0-11 5-11 11 0 6 5 11 11 11l490 0c6 0 11-5 11-11 0-6-5-11-11-11z m0-158l-490 0c-6 0-11 5-11 11 0 6 5 11 11 11l490 0c6 0 11-5 11-11 0-6-5-11-11-11z m-419 3c-6 0-10 5-10 11l0 152c0 6 4 11 10 11 6 0 11-5 11-11l0-152c0-6-5-11-11-11z m348 0c-6 0-11 5-11 11l0 152c0 6 5 11 11 11 6 0 10-5 10-11l0-152c0-6-4-11-10-11z m-174 163c-6 0-11 5-11 11l0 63c0 6 5 11 11 11 6 0 11-5 11-11l0-63c0-6-5-11-11-11z m-114-251c-4 0-8 2-10 7-2 5 1 11 6 14 29 11 37 58 38 75 0 6 5 11 11 11 6-1 10-6 10-11 0-4-4-77-51-95-1-1-2-1-4-1z m228 0c-2 0-3 0-4 1-47 18-51 91-51 95 0 5 4 10 10 11 6 0 11-5 11-11 0 0 3-62 38-75 5-3 8-9 6-14-2-5-6-7-10-7z"/>
<glyph unicode="&#103;" d="M397 56l-282 0c-29 0-53 24-53 53l0 326c0 30 24 54 53 54l282 0c29 0 53-24 53-54l0-326c0-29-24-53-53-53z m-282 411c-18 0-32-14-32-32l0-326c0-17 14-32 32-32l282 0c18 0 32 15 32 32l0 326c0 18-14 32-32 32z m224-233l-166 0c-29 0-53 24-53 53l0 83c0 30 24 53 53 53l166 0c29 0 53-23 53-53l0-83c0-29-24-53-53-53z m-166 168c-17 0-32-14-32-32l0-83c0-17 15-32 32-32l166 0c17 0 32 15 32 32l0 83c0 18-15 32-32 32z m-5-264l-26 0c-6 0-11 5-11 11 0 6 5 11 11 11l26 0c6 0 10-5 10-11 0-6-4-11-10-11z m202 0l-26 0c-6 0-10 5-10 11 0 6 4 11 10 11l26 0c6 0 11-5 11-11 0-6-5-11-11-11z m-221-115c-6 0-11 5-11 11l0 32c0 6 5 11 11 11 5 0 10-5 10-11l0-32c0-6-5-11-10-11z m214 0c-5 0-10 5-10 11l0 32c0 6 5 11 10 11 6 0 11-5 11-11l0-32c0-6-5-11-11-11z"/>
<glyph unicode="&#104;" d="M467 0l-422 0c-25 0-45 22-45 49l0 344c0 26 20 48 45 48l422 0c25 0 45-22 45-48l0-344c0-27-20-49-45-49z m-422 420c-13 0-24-12-24-27l0-344c0-15 11-28 24-28l422 0c13 0 24 13 24 28l0 344c0 15-11 27-24 27z m303 2c-6 0-11 5-11 11l0 58-162 0 0-58c0-6-5-11-11-11-6 0-11 5-11 11l0 68c0 6 5 11 11 11l184 0c6 0 11-5 11-11l0-68c0-6-5-11-11-11z m-248-412c-6 0-11 5-11 11l0 399c0 6 5 11 11 11 6 0 11-5 11-11l0-399c0-6-5-11-11-11z m312 0c-6 0-11 5-11 11l0 399c0 6 5 11 11 11 6 0 11-5 11-11l0-399c0-6-5-11-11-11z"/>
<glyph unicode="&#105;" d="M170 0c-132 0-169 103-169 105-2 3-1 6 1 9 2 3 5 5 9 5l490 0c5 0 9-3 10-8 2-4 0-9-3-11-5-5-132-100-338-100z m-143 97c15-25 54-76 143-76 142 0 246 49 295 76z m209 8c-6 0-11 5-11 11l0 385c0 6 5 11 11 11 6 0 11-5 11-11l0-385c0-6-5-11-11-11z m-175 18c-4 0-7 2-9 6-35 63-43 124-23 181 42 118 186 177 192 180 5 2 10 0 13-4 3-4 2-10-1-14-78-81-28-278-27-280 1-6-2-11-7-13l-134-55c-1-1-3-1-4-1z m132 329c-45-25-118-75-144-149-17-49-11-101 17-156l117 48c-8 36-34 170 10 257z"/>
<glyph unicode="&#106;" d="M286 115c-1 0-2 1-3 1-3 1-5 3-7 5l-180 349-51 0c-6 0-11 5-11 11 0 5 5 10 11 10l57 0c4 0 8-2 10-6l178-344 133 73c5 2 12 1 14-5 3-5 1-11-4-14l-142-78c-2-1-3-2-5-2z m17 56c-1 0-2 0-3 1-3 1-5 2-6 5l-123 233c-1 3-1 6-1 8 1 3 3 5 6 6l164 87c5 2 11 1 14-5l123-233c1-2 1-5 0-8 0-3-2-5-5-6l-164-87c-1 0-3-1-5-1z m-108 240l113-215 145 77-113 214z m154-411c-32 0-58 26-58 58 0 33 26 59 58 59 33 0 59-26 59-59 0-32-26-58-59-58z m0 95c-20 0-37-16-37-37 0-20 17-37 37-37 21 0 37 17 37 37 0 21-16 37-37 37z"/>
<glyph unicode="&#107;" d="M415 88l-229 0c-6 0-11 4-11 10 0 6 5 11 11 11l222 0 23 65-262 0c-5 0-9 3-10 8l-85 309-63 0c-6 0-11 4-11 10 0 6 5 11 11 11l71 0c5 0 9-3 10-8l85-309 269 0c4 0 7-1 9-4 2-3 3-7 2-10l-32-86c-1-5-5-7-10-7z m-169-49c0 16-13 28-29 28-17 0-30-12-30-28 0-16 13-28 30-28 16 0 29 12 29 28z m155 0c0 16-14 28-30 28-16 0-30-12-30-28 0-16 14-28 30-28 16 0 30 12 30 28z m14 135c-1 0-2 0-4 1-5 2-8 8-5 14l79 191-367 0c-6 0-10 5-10 11 0 6 4 11 10 11l383 0c4 0 7-2 9-5 2-3 3-7 1-10l-86-206c-1-5-5-7-10-7z m59 145l-343 0c-6 0-11 5-11 11 0 6 5 10 11 10l343 0c6 0 10-4 10-10 0-6-4-11-10-11z m-33-75l-287 0c-6 0-11 5-11 10 0 6 5 11 11 11l287 0c6 0 10-5 10-11 0-5-4-10-10-10z m-105-66c0 0-1 0-2 0-6 2-9 7-8 13l46 197c1 6 7 10 12 8 6-1 10-7 8-13l-45-197c-1-5-6-8-11-8z m-78-4c-5 0-10 4-11 9l-24 202c-1 5 3 11 9 11 6 1 11-3 12-9l25-201c0-6-4-11-10-12 0 0-1 0-1 0z"/>
<glyph unicode="&#108;" d="M377 0c0 0 0 0 0 0l-300 0c-6 0-11 5-11 11 0 31 40 57 103 67-17 74-39 127-59 144-7 0-19-2-27-12-8-8-10-22-8-39 0-1 0-2 0-3 0-6-4-11-10-11 0 0 0 0 0 0-4 0-7 1-9 4-1 1-35 43-26 85 3 16 13 30 29 41-4 2-10 3-16 3-9 0-17-3-25-11-3-4-8-4-12-2-5 2-7 7-6 11 4 20 23 57 64 57 13 0 27-4 42-11 9 16 29 45 60 45 21 0 41-12 62-36 2-2 4-5 4-9 0-5-5-10-11-10 0 0-1 0-1 0 0 0-2 0-5 0-9 0-26-1-39-10 2 0 3 0 4 0 24 0 65-10 75-80 0-1 0-2 0-3 0-6-5-11-10-11-3 0-5 1-7 2-9 7-38 26-58 26-7 0-12-3-16-8 12-15 45-61 63-126 31 99 93 193 108 215-5 13-13 14-19 14-22 0-54-24-64-34-3-3-8-4-12-2-4 2-6 7-6 11 10 93 55 107 81 107 4 0 8 0 12-1-13 18-35 22-50 22-3 0-5-1-5-1-4 0-8 2-11 6-2 3-1 8 1 11 23 33 46 50 68 50 35 0 57-39 66-60 17 10 33 15 47 15 51 0 66-59 68-71 1-2 1-3 1-5 0-5-5-10-10-10-1 0-1 0-1 0-3 0-6 1-8 4-9 10-18 16-28 16-8 0-16-4-22-8 19-14 31-32 36-53 12-54-26-111-28-114-3-4-8-5-13-4-4 2-7 7-6 12 3 28-1 49-12 62-10 10-21 13-27 13-24-25-59-111-94-234 53-11 86-34 88-62 0-1 0-1 0-2 1-6-4-11-10-11z m-286 21l271 0c-9 14-36 28-79 36-3 0-5 2-7 4-2 3-2 6-1 9 23 82 68 225 107 258 2 2 4 3 6 3 1 0 2 0 2 0 6 0 29-2 45-21 9-9 14-20 17-34 6 18 10 39 6 59-5 20-17 36-38 47-2 2-4 5-5 8 0 3 0 6 3 9 0 0 20 23 47 23 5 0 10-1 15-2-7 13-19 25-37 25-13 0-28-6-46-18-2-1-6-2-9-1-3 1-6 4-7 7-5 16-25 58-51 58-11 0-25-9-38-25 21-3 55-15 64-56 0-4-1-8-4-10-4-3-8-3-12-1 0 0-11 5-25 5-33 0-48-30-56-62 16 11 37 23 57 23 11 0 32-5 41-35 1-3 0-7-2-9-1-2-92-132-118-251-1-5-6-9-11-9-2 0-4 0-7 0l-1 0c-5 0-9 3-11 8-1 4 1 9 5 12l0 0c-16 90-68 149-68 150-3 3-3 7-2 11 6 17 19 27 38 27 16 0 35-8 49-16-9 27-25 40-49 40-13 0-23-4-23-4-4-2-8-1-11 2-3 2-4 7-3 10 6 23 25 39 54 43-11 9-21 14-31 14-28 0-45-42-45-42-1-3-4-5-7-6-2-1-6-1-8 0-16 9-30 14-42 14-13 0-23-6-29-13 3 1 6 1 8 1 25 0 43-17 44-18 3-2 4-6 3-9 0-4-3-7-6-8-19-9-30-21-33-36-3-13 0-26 5-38 2 8 6 15 11 21 16 18 39 20 45 20 0 0 1 0 2 0 2 0 4-1 5-2 37-26 61-118 73-171 1-3 0-6-2-8-1-3-4-4-7-5-50-6-81-22-92-37z"/>
<glyph unicode="&#109;" d="M211 0c-8 0-25 1-37 13-12 10-17 25-17 44l0 214c0 2 1 5 3 7 2 2 5 3 8 3 0 0 94 0 140 46 17 16 26 38 26 64l0 23c0 42-34 77-77 77-42 0-77-35-77-77 0-6-4-11-10-11-6 0-11 5-11 11 0 54 44 98 98 98 54 0 98-44 98-98l0-364c-1-18-14-50-49-50l-92 0c-1 0-2 0-3 0z m-33 260l0-203c0-13 3-22 10-28 10-9 24-8 24-8 1 0 1 0 2 0l92 0c25 0 28 28 28 30l0 273c-3-5-7-9-11-13-43-42-117-50-145-51z"/>
<glyph unicode="&#110;" d="M144 37c-2 0-4 1-6 2-54 37-86 94-86 154 0 12 3 38 6 65 4 26 7 52 7 63 0 105 86 191 191 191 105 0 191-86 191-191 0-11 3-37 7-63 3-27 6-53 6-65 0-60-32-117-86-154-4-2-8-3-11-1-4 2-6 6-6 10l0 8c0 26-21 48-48 48l-106 0c-27 0-48-22-48-48l0-8c0-4-2-8-6-10-1-1-3-1-5-1z m112 454c-94 0-170-77-170-170 0-12-3-38-7-66-3-25-6-52-6-62 0-47 23-92 62-125 6 32 34 57 68 57l106 0c34 0 62-25 68-57 39 33 62 78 62 125 0 10-3 37-6 63-4 27-7 53-7 65 0 93-76 170-170 170z m78-243l-156 0c-35 0-63 28-63 63l0 36c0 35 28 64 63 64l156 0c35 0 63-29 63-64l0-36c0-35-28-63-63-63z m-156 141c-23 0-42-19-42-42l0-36c0-23 19-42 42-42l156 0c23 0 42 19 42 42l0 36c0 23-19 42-42 42z m-21-211c0-11-9-20-19-20-11 0-20 9-20 20 0 11 9 19 20 19 10 0 19-8 19-19z m237 0c0-11-9-20-20-20-10 0-19 9-19 20 0 11 9 19 19 19 11 0 20-8 20-19z m-92-11l-92 0c-6 0-10 5-10 11 0 6 4 11 10 11l92 0c6 0 10-5 10-11 0-6-4-11-10-11z m9-117l-110 0c-6 0-11 5-11 11 0 6 5 10 11 10l110 0c6 0 11-4 11-10 0-6-5-11-11-11z m-55-50c-6 0-11 5-11 11l0 43c0 6 5 10 11 10 6 0 11-4 11-10l0-43c0-6-5-11-11-11z"/>
<glyph unicode="&#111;" d="M323 0l-312 0c-6 0-11 5-11 11l0 490c0 6 5 11 11 11l312 0c6 0 11-5 11-11l0-490c0-6-5-11-11-11z m-302 21l292 0 0 470-292 0z m480-21l-178 0c-6 0-10 5-10 11l0 290c0 6 4 11 10 11l178 0c6 0 11-5 11-11l0-290c0-6-5-11-11-11z m-167 21l157 0 0 270-157 0z m-142-21l-61 0c-6 0-11 5-11 11l0 185c0 6 5 11 11 11l61 0c6 0 11-5 11-11l0-185c0-6-5-11-11-11z m-51 21l41 0 0 165-41 0z m-68 365c-6 0-10 5-10 11l0 53c0 6 4 11 10 11 6 0 11-5 11-11l0-53c0-6-5-11-11-11z m89 0c-6 0-11 5-11 11l0 53c0 6 5 11 11 11 5 0 10-5 10-11l0-53c0-6-5-11-10-11z m88 0c-6 0-11 5-11 11l0 53c0 6 5 11 11 11 6 0 10-5 10-11l0-53c0-6-4-11-10-11z m-177-122c-6 0-10 5-10 11l0 53c0 6 4 11 10 11 6 0 11-5 11-11l0-53c0-6-5-11-11-11z m89 0c-6 0-11 5-11 11l0 53c0 6 5 11 11 11 5 0 10-5 10-11l0-53c0-6-5-11-10-11z m88 0c-6 0-11 5-11 11l0 53c0 6 5 11 11 11 6 0 10-5 10-11l0-53c0-6-4-11-10-11z m157-92c-5 0-10 5-10 11l0 53c0 6 5 11 10 11 6 0 11-5 11-11l0-53c0-6-5-11-11-11z m0-122c-5 0-10 5-10 10l0 54c0 6 5 10 10 10 6 0 11-4 11-10l0-54c0-5-5-10-11-10z m-334 30c-6 0-10 5-10 11l0 115c0 5 4 10 10 10 6 0 11-5 11-10l0-115c0-6-5-11-11-11z m177 0c-6 0-11 5-11 11l0 115c0 5 5 10 11 10 6 0 10-5 10-10l0-115c0-6-4-11-10-11z"/>
<glyph unicode="&#112;" d="M131 0c-7 0-24 1-37 13-11 10-16 25-16 44l0 214c0 2 1 5 3 7 2 2 5 3 7 3 1 0 94 0 141 46 17 16 26 38 26 64 0 6 5 11 10 11 6 0 11-5 11-11 0-32-11-59-32-80-43-42-117-50-145-51l0-203c0-13 3-22 10-28 9-9 24-8 24-8l94 0c25 0 28 28 28 30 0 6 6 10 11 9 6 0 11-5 10-11-1-17-14-49-49-49l-92 0c-1 0-2 0-4 0z m135 214c-6 0-11 5-11 11l0 189c0 42-35 77-77 77-42 0-77-35-77-77 0-6-4-11-10-11-6 0-11 5-11 11 0 54 44 98 98 98 54 0 98-44 98-98l0-189c0-6-5-11-10-11z m54-191c-63 0-114 51-114 114 0 63 51 114 114 114 63 0 114-51 114-114 0-63-51-114-114-114z m0 207c-51 0-92-42-92-93 0-51 41-93 92-93 51 0 93 42 93 93 0 51-42 93-93 93z m55-104l-110 0c-5 0-10 5-10 11 0 6 5 11 10 11l110 0c6 0 11-5 11-11 0-6-5-11-11-11z"/>
<glyph unicode="&#113;" d="M131 0c-7 0-24 1-37 13-11 10-16 25-16 44l0 214c0 2 1 5 3 7 2 2 5 3 7 3 1 0 94 0 141 46 17 16 26 38 26 64 0 6 5 11 10 11 6 0 11-5 11-11 0-32-11-59-32-80-43-42-117-50-145-51l0-203c0-13 3-22 10-28 9-9 24-8 24-8l94 0c25 0 28 28 28 30 0 6 6 10 11 9 6 0 11-5 10-11-1-17-14-49-49-49l-92 0c-1 0-2 0-4 0z m135 214c-6 0-11 5-11 11l0 189c0 42-35 77-77 77-42 0-77-35-77-77 0-6-4-11-10-11-6 0-11 5-11 11 0 54 44 98 98 98 54 0 98-44 98-98l0-189c0-6-5-11-10-11z m54-191c-63 0-114 51-114 114 0 63 51 114 114 114 63 0 114-51 114-114 0-63-51-114-114-114z m0 207c-51 0-92-42-92-93 0-51 41-93 92-93 51 0 93 42 93 93 0 51-42 93-93 93z m55-104l-110 0c-5 0-10 5-10 11 0 6 5 11 10 11l110 0c6 0 11-5 11-11 0-6-5-11-11-11z m-55-55c-6 0-10 5-10 11l0 110c0 6 4 10 10 10 6 0 11-4 11-10l0-110c0-6-5-11-11-11z"/>
<glyph unicode="&#114;" d="M440 81c-40 0-72 33-72 72 0 40 32 72 72 72 40 0 72-32 72-72 0-39-32-72-72-72z m0 123c-28 0-51-23-51-51 0-28 23-50 51-50 28 0 51 22 51 50 0 28-23 51-51 51z m-368-123c-40 0-72 33-72 72 0 40 32 72 72 72 40 0 72-32 72-72 0-40-32-72-72-72z m0 123c-28 0-51-23-51-51 0-28 23-50 51-50 28 0 51 22 51 50 0 28-23 51-51 51z m241-88l-117 0c-6 0-11 4-11 10-8 137-175 180-177 180-5 1-8 5-8 10 0 5 3 9 7 11 4 1 87 27 130 2 35-20 110-6 126 13 23 27 96 35 137 8 5-4 6-10 3-15-3-5-10-7-15-3-33 22-94 14-108-3-23-28-111-42-154-18-18 10-51 8-77 4 52-22 145-74 156-178l99 0c6 25 25 97 77 134 25 18 53 26 84 24-12 31-47 99-118 115-6 1-9 7-8 12 1 6 7 10 13 9 105-24 138-141 139-146 1-4 0-8-2-10-3-3-7-4-10-4-33 6-61 0-85-17-56-40-70-128-70-129-1-5-6-9-11-9z"/>
<glyph unicode="&#115;" d="M212 153c-110 0-198 89-198 198 0 6 4 11 10 11l375 0c6 0 11-5 11-11 0-109-89-198-198-198z m-177 188c6-93 83-166 177-166 94 0 171 73 176 166z m177-341c-6 0-11 5-11 11l0 153c0 6 5 11 11 11 6 0 10-5 10-11l0-153c0-6-4-11-10-11z m88 0l-177 0c-6 0-11 5-11 11 0 6 5 10 11 10l177 0c6 0 11-4 11-10 0-6-5-11-11-11z m57 229c-6 0-11 4-11 10 0 6 5 11 11 11 66 0 120 54 120 120 0 67-54 121-120 121-67 0-121-54-121-121 0-6 1-11 2-17 0-6-4-11-9-12-6-1-12 3-12 9-1 6-2 13-2 20 0 78 64 142 142 142 78 0 141-64 141-142 0-78-63-141-141-141z"/>
<glyph unicode="&#116;" d="M131 0c-7 0-24 1-37 13-11 10-16 25-16 44l0 214c0 2 1 5 3 7 2 2 5 3 7 3 1 0 94 0 141 46 17 16 26 38 26 64 0 6 5 11 10 11 6 0 11-5 11-11 0-32-11-59-32-80-43-42-117-50-145-51l0-203c0-13 3-22 10-28 9-9 24-8 24-8l94 0c25 0 28 28 28 30 0 6 6 10 11 9 6 0 11-5 10-11-1-17-14-49-49-49l-92 0c-1 0-2 0-4 0z m135 214c-6 0-11 5-11 11l0 189c0 42-35 77-77 77-42 0-77-35-77-77 0-6-4-11-10-11-6 0-11 5-11 11 0 54 44 98 98 98 54 0 98-44 98-98l0-189c0-6-5-11-10-11z m54-191c-63 0-114 51-114 114 0 63 51 114 114 114 63 0 114-51 114-114 0-63-51-114-114-114z m0 207c-51 0-92-42-92-93 0-51 41-93 92-93 51 0 93 42 93 93 0 51-42 93-93 93z m-23-138c-3 0-6 2-8 4l-32 43c-4 4-3 11 2 15 5 3 12 2 15-3l25-34 70 49c5 4 11 2 15-2 3-5 2-12-3-15l-78-55c-2-1-4-2-6-2z"/>
<glyph unicode="&#117;" d="M456 146l-435 0c-6 0-11 5-11 11l0 225c0 6 5 10 11 10l253 0c42 0 98-7 129-25 46-27 106-118 100-171-2-16-28-38-40-47-2-2-4-3-7-3z m-425 22l422 0c14 12 28 26 29 31 4 43-50 126-90 149-23 14-71 23-118 23l-243 0z m124 216c-2 0-4 0-6 1l-62 36c-4 2-6 5-6 9 0 4 2 8 6 10l62 35c4 2 8 2 11 0l63-36c3-1 5-5 5-9 0-4-2-7-5-9l-63-36c-2-1-3-1-5-1z m-41 46l41-23 41 23-41 24z m387-395l-490 0c-6 0-11 5-11 11 0 6 5 11 11 11l490 0c6 0 11-5 11-11 0-6-5-11-11-11z m-234 247l-246 0c-6 0-11 5-11 11 0 6 5 11 11 11l246 0c6 0 11-5 11-11 0-6-5-11-11-11z m111 0c-14 0-25 0-26 0-6 1-10 6-10 12 1 6 6 10 12 10 18-2 72-2 93 8 6 3 12 1 15-5 2-5 0-11-5-14-20-9-54-11-79-11z m-301-190l-47 0c-6 0-11 5-11 11 0 6 5 11 11 11l47 0c6 0 11-5 11-11 0-6-5-11-11-11z m133 0l-47 0c-6 0-11 5-11 11 0 6 5 11 11 11l47 0c6 0 11-5 11-11 0-6-5-11-11-11z m133 0l-47 0c-6 0-11 5-11 11 0 6 5 11 11 11l47 0c6 0 11-5 11-11 0-6-5-11-11-11z m133 0l-47 0c-6 0-11 5-11 11 0 6 5 11 11 11l47 0c6 0 11-5 11-11 0-6-5-11-11-11z"/>
<glyph unicode="&#118;" d="M427 42c-1 0-1 1-1 1l-405 29c-5 0-9 4-10 9l-11 57c-1 5 2 10 6 12 15 7 371 177 495 182 4 0 7-2 9-5 2-3 3-7 1-11-28-53-95-202-75-257 1-2 1-4 1-6 0-6-4-10-10-10 0 0 0-1 0-1z m-396 51l382-28c-11 68 47 197 70 244-123-18-410-151-460-175z m29 60c-6 0-11 4-11 10l0 116c0 4 3 8 6 10l233 103c2 0 3 0 5 0l124 0c6 0 11-4 11-10l0-69c0-6-5-10-11-10-6 0-10 4-10 10l0 58-112 0-225-99 0-109c0-6-4-10-10-10z m130 173c-6 0-11 5-11 10l0 114c0 6 5 11 11 11 6 0 10-5 10-11l0-114c0-5-4-10-10-10z m-94 110c-2 0-4 0-6 1-7 1-12 6-17 14-3 5-1 12 4 15 5 3 12 1 15-4 2-4 3-5 3-5 2 0 7 3 10 5 4 2 8 5 13 6 8 3 16 1 23 0 4-1 10-2 12-1 5 3 12 2 15-3 3-5 1-12-4-15-8-5-18-3-26-2-5 1-11 2-13 1-3-1-6-3-9-5-6-3-13-7-20-7z m-3-205c-5 0-9 2-10 6-2 6 0 12 6 14l20 8c5 2 12-1 14-6 2-6-1-12-6-14l-21-8c-1 0-2 0-3 0z m70 27c-4 0-8 3-10 7-2 5 1 12 6 14l20 7c6 2 12 0 14-6 2-5-1-11-6-14l-20-7c-1-1-3-1-4-1z m83 31c-4 0-8 3-10 7-2 6 1 12 6 14l20 8c6 2 12-1 14-7 2-5-1-11-6-13l-20-8c-1-1-3-1-4-1z"/>
<glyph unicode="&#119;" d="M256 40c-119 0-216 97-216 216 0 119 97 216 216 216 119 0 216-97 216-216 0-119-97-216-216-216z m0 411c-107 0-195-88-195-195 0-107 88-195 195-195 107 0 195 88 195 195 0 107-88 195-195 195z m0-206c-2 0-4 1-6 2-3 2-5 5-5 9l0 146c0 6 5 11 11 11 6 0 11-5 11-11l0-129 106 49c5 3 11 0 14-5 2-5 0-12-5-14l-121-57c-2 0-3-1-5-1z m-175 0l-27 0c-6 0-11 5-11 11 0 6 5 11 11 11l27 0c6 0 11-5 11-11 0-6-5-11-11-11z m377 0l-27 0c-6 0-11 5-11 11 0 6 5 11 11 11l27 0c6 0 11-5 11-11 0-6-5-11-11-11z m-202 175c-6 0-11 5-11 11l0 27c0 6 5 11 11 11 6 0 11-5 11-11l0-27c0-6-5-11-11-11z m0-377c-6 0-11 5-11 11l0 27c0 6 5 11 11 11 6 0 11-5 11-11l0-27c0-6-5-11-11-11z"/>
<glyph unicode="&#120;" d="M188 118c-63 0-115 51-115 115 0 63 52 115 115 115 64 0 115-52 115-115 0-64-51-115-115-115z m0 209c-52 0-94-42-94-94 0-52 42-94 94-94 52 0 94 42 94 94 0 52-42 94-94 94z m0-167c-40 0-72 33-72 73 0 40 32 73 72 73 40 0 73-33 73-73 0-40-33-73-73-73z m0 124c-28 0-51-23-51-51 0-28 23-52 51-52 29 0 52 24 52 52 0 28-23 51-52 51z m289-220l-442 0c-19 0-35 15-35 34l0 269c0 20 16 35 35 35l139 0 0 36c0 6 5 10 11 10l142 0c6 0 11-4 11-10l0-36 139 0c19 0 35-15 35-35l0-269c0-19-16-34-35-34z m-442 317c-4 0-7-2-10-4-2-3-4-6-4-10l0-269c0-7 6-13 14-13l442 0c8 0 14 6 14 13l0 269c0 8-6 14-14 14l-150 0c-6 0-11 5-11 10l0 36-120 0 0-36c0-5-5-10-11-10z m389-245c-6 0-11 5-11 11l0 183c0 6 5 11 11 11 6 0 10-5 10-11l0-183c0-6-4-11-10-11z"/>
<glyph unicode="&#121;" d="M429 0l-346 0c-20 0-37 17-37 37l0 438c0 20 17 37 37 37l346 0c20 0 37-17 37-37l0-438c0-20-17-37-37-37z m-346 491c-8 0-15-7-15-16l0-438c0-9 7-16 15-16l346 0c8 0 15 7 15 16l0 438c0 9-7 16-15 16z m270-339l-194 0c-6 0-11 5-11 11 0 6 5 11 11 11l194 0c6 0 11-5 11-11 0-6-5-11-11-11z m0-71l-194 0c-6 0-11 5-11 11 0 6 5 11 11 11l194 0c6 0 11-5 11-11 0-6-5-11-11-11z m-97 142c-65 0-117 52-117 117 0 64 52 117 117 117 65 0 117-53 117-117 0-65-52-117-117-117z m0 213c-53 0-96-43-96-96 0-53 43-96 96-96 53 0 96 43 96 96 0 53-43 96-96 96z m0-213c-32 0-57 50-57 117 0 67 25 117 57 117 32 0 57-50 57-117 0-67-25-117-57-117z m0 213c-15 0-35-37-35-96 0-60 20-96 35-96 15 0 35 36 35 96 0 59-20 96-35 96z m107-107l-214 0c-5 0-10 5-10 11 0 6 5 11 10 11l214 0c5 0 10-5 10-11 0-6-5-11-10-11z"/>
<glyph unicode="&#122;" d="M454 52l-396 0c-32 0-58 23-58 52l0 115c0 29 26 52 58 52l396 0c32 0 58-23 58-52l0-115c0-29-26-52-58-52z m-396 198c-20 0-37-14-37-31l0-115c0-17 17-31 37-31l396 0c20 0 37 14 37 31l0 115c0 17-17 31-37 31l-396 0z m454-82l-21 0 0 292c0 17-17 31-37 31l-396 0c-20 0-37-14-37-31l0-292-21 0 0 292c0 29 26 52 58 52l396 0c32 0 58-23 58-52z m-65 82c-5 0-9 3-10 8l-25 110c-3 16-21 30-39 30l-234 0c-18 0-36-14-39-30l-25-110c-1-5-7-9-13-8-5 2-9 7-8 13l25 110c5 26 32 46 60 46l234 0c28 0 54-20 60-46l25-110c1-6-3-11-8-13-1 0-2 0-3 0z m-300-89c0 25-20 45-45 45-25 0-46-20-46-45 0-24 21-44 46-44 25 0 45 20 45 44z m309 0c0 25-21 45-46 45-25 0-45-20-45-45 0-24 20-44 45-44 25 0 46 20 46 44z m-150-10l-100 0c-6 0-11 5-11 10 0 6 5 11 11 11l100 0c6 0 11-5 11-11 0-5-5-10-11-10z m-242-151c-6 0-11 5-11 11l0 44c0 6 5 10 11 10 6 0 10-4 10-10l0-44c0-6-4-11-10-11z m384 0c-6 0-11 5-11 11l0 44c0 6 5 10 11 10 6 0 11-4 11-10l0-44c0-6-5-11-11-11z m-154 359l-76 0c-6 0-11 5-11 10 0 6 5 11 11 11l76 0c6 0 11-5 11-11 0-5-5-10-11-10z"/>
<glyph unicode="&#65;" d="M11 74c-6 0-11 5-11 11l0 342c0 6 5 11 11 11 6 0 10-5 10-11l0-342c0-6-4-11-10-11z m490 0c-6 0-10 5-10 11l0 131-468 0c-6 0-10 5-10 11 0 6 4 10 10 10l478 0c6 0 11-4 11-10l0-142c0-6-5-11-11-11z m-9 68l-469 0c-6 0-10 5-10 10 0 6 4 11 10 11l469 0c6 0 11-5 11-11 0-5-5-10-11-10z m-336 123l-93 0c-6 0-11 5-11 11 0 6 5 11 11 11l93 0c6 0 11-5 11-11 0-6-5-11-11-11z"/>
<glyph unicode="&#66;" d="M356 0c-6 0-11 5-11 11 0 43-40 78-89 78-49 0-89-35-89-78 0-6-5-11-11-11-6 0-10 5-10 11 0 55 49 99 110 99 61 0 110-44 110-99 0-6-4-11-10-11z m-203 0l-95 0c-4 0-8 2-10 6-2 3-1 7 1 10l105 166c-3 15-12 62 9 94 9 14 23 24 41 28l24 199c0 5 5 9 10 9l18 0c6 0 11-5 11-11 0-6-5-10-11-10l-8 0-23-197c-1-5-5-8-9-9-17-2-28-9-36-21-15-25-8-67-4-81 1-3 0-6-1-9l-98-153 76 0c6 0 11-4 11-10 0-6-5-11-11-11z m301 0l-95 0c-6 0-11 5-11 11 0 6 5 10 11 10l76 0-98 153c-1 3-2 6-1 9 0 0 15 51-5 81-7 12-18 19-35 21-4 1-8 4-9 9l-23 197-8 0c-6 0-11 4-11 10 0 6 5 11 11 11l18 0c5 0 10-4 10-9l24-199c18-4 32-14 41-28 21-32 12-79 9-94l105-166c2-3 3-7 1-10-2-4-6-6-10-6z m-198 136c-2 0-4 1-6 2-5 3-6 10-3 14l30 48-29 34c-4 4-3 11 1 15 4 4 11 3 15-1l35-40c3-4 3-9 1-13l-35-54c-2-3-5-5-9-5z m0 0c-4 0-7 2-9 5l-35 54c-2 4-2 9 1 13l35 40c4 4 11 5 15 1 4-4 5-11 1-15l-29-34 30-48c3-4 2-11-3-14-2-1-4-2-6-2z"/>
<glyph unicode="&#67;" d="M77 58c-42 0-77 35-77 77 0 43 35 78 77 78 43 0 78-35 78-78 0-42-35-77-78-77z m0 133c-31 0-56-25-56-56 0-31 25-56 56-56 31 0 56 25 56 56 0 31-25 56-56 56z m179-133c-43 0-77 35-77 77 0 43 34 78 77 78 43 0 77-35 77-78 0-42-34-77-77-77z m0 133c-31 0-56-25-56-56 0-31 25-56 56-56 31 0 56 25 56 56 0 31-25 56-56 56z m147-133c-25 0-45 20-45 45 0 25 20 46 45 46 25 0 46-21 46-46 0-25-21-45-46-45z m0 70c-13 0-24-11-24-25 0-13 11-24 24-24 14 0 24 11 24 24 0 14-10 25-24 25z m-373 63c-6 0-10 5-10 11l0 233 6 3c4 1 90 36 174 0l6-3 0-209c0-6-4-10-10-10-6 0-11 4-11 10l0 195c-61 23-124 6-144-1l0-218c0-6-5-11-11-11z m471-88c-3 0-6 1-8 4l-91 114 3 6c19 40 1 67-6 75l-199 0c-6 0-11 5-11 10 0 6 5 11 11 11l207 0 3-3c15-12 36-49 17-96l83-104c3-5 3-11-2-15-2-2-4-2-7-2z m-245 199c-6 0-11 5-11 10l0 67c0 6 5 11 11 11 6 0 11-5 11-11l0-67c0-5-5-10-11-10z m112 10c-5 0-10 5-10 11l0 101c0 5 5 10 10 10 6 0 11-5 11-10l0-101c0-6-5-11-11-11z m-185-195l-32 0c-6 0-10 5-10 11 0 6 4 10 10 10l32 0c6 0 11-4 11-10 0-6-5-11-11-11z m185-14c-1 0-2 0-3 0l-38 15c-5 2-8 8-6 14 2 5 8 8 14 6l37-15c6-2 9-8 6-14-1-4-5-6-10-6z m133-10l-51 0c-6 0-11 4-11 10 0 6 5 11 11 11l51 0c6 0 11-5 11-11 0-6-5-10-11-10z"/>
<glyph unicode="&#68;" d="M353 0l-294 0c-6 0-10 4-11 10l-48 490c0 3 1 6 3 8 2 3 5 4 8 4l390 0c3 0 6-1 8-4 2-2 3-5 3-8l-48-490c-1-6-5-10-11-10z m-285 21l276 0 45 470-367 0z m325 181c-5 0-10 0-14 1-6 1-10 6-10 12 1 6 6 10 12 9 25-3 49 4 69 19 22 18 37 45 40 74 6 58-32 111-86 118-5 1-9 6-9 12 1 6 6 10 12 9 65-8 112-72 104-141-4-35-21-67-48-88-20-16-45-25-70-25z m-227 171c-6 0-11 5-11 11l0 117c0 6 5 11 11 11 6 0 10-5 10-11l0-117c0-6-4-11-10-11z m65-198l-130 0c-6 0-11 5-11 11l0 169c0 4 3 8 6 10l66 29c3 1 6 1 8 0l65-29c4-2 6-6 6-10l0-169c0-6-4-11-10-11z m-120 21l109 0 0 152-54 24-55-24 0-152z"/>
<glyph unicode="&#69;" d="M256 57c-92 0-155 225-155 300 0 85 69 155 155 155 86 0 155-70 155-155 0-75-63-300-155-300z m0 434c-74 0-134-60-134-134 0-78 64-278 134-278 70 0 134 200 134 278 0 74-60 134-134 134z m84-217l-168 0c-12 0-22 10-22 21l0 90c0 11 10 21 22 21l168 0c12 0 22-10 22-21l0-90c0-11-10-21-22-21z m0 21l0-10z m-168 90l0-90 168 0 0 90z m-142-385c-3 0-5 1-7 2-5 4-5 11-2 15l127 160c4 5 11 5 15 2 5-4 6-11 2-15l-127-160c-2-3-5-4-8-4z m452 0c-3 0-6 1-8 4l-127 160c-4 4-3 11 2 15 4 3 11 3 15-2l127-160c3-4 3-11-2-15-2-1-4-2-7-2z m-37 33l-378 0c-6 0-10 5-10 11 0 6 4 11 10 11l378 0c6 0 10-5 10-11 0-6-4-11-10-11z"/>
<glyph unicode="&#70;" d="M256 105c-114 0-206 93-206 207 0 28 12 82 23 130 6 24 12 48 14 61 1 5 5 9 10 9l318 0c5 0 9-4 10-8 2-9 5-22 8-37 12-48 29-122 29-155 0-114-92-207-206-207z m-150 386c-2-14-7-33-12-54-10-44-23-99-23-125 0-103 83-186 185-186 102 0 185 83 185 186 0 31-17 103-28 150-3 11-5 21-7 29z m150-491c-6 0-11 5-11 11l0 105c0 6 5 10 11 10 6 0 11-4 11-10l0-105c0-6-5-11-11-11z m77 0l-154 0c-6 0-11 5-11 11 0 6 5 10 11 10l154 0c6 0 11-4 11-10 0-6-5-11-11-11z m104 371l-362 0c-6 0-11 5-11 10 0 6 5 11 11 11l362 0c6 0 11-5 11-11 0-5-5-10-11-10z"/>
<glyph unicode="&#71;" d="M256 0c-141 0-256 115-256 256 0 141 115 256 256 256 141 0 256-115 256-256 0-141-115-256-256-256z m0 491c-129 0-235-106-235-235 0-129 106-235 235-235 129 0 235 106 235 235 0 129-106 235-235 235z m0-491c-84 0-152 115-152 256 0 141 68 256 152 256 84 0 152-115 152-256 0-141-68-256-152-256z m0 491c-72 0-130-106-130-235 0-129 58-235 130-235 72 0 130 106 130 235 0 129-58 235-130 235z m0-490c-6 0-11 5-11 11l0 488c0 6 5 11 11 11 6 0 11-5 11-11l0-488c0-6-5-11-11-11z m244 244l-488 0c-6 0-11 5-11 11 0 6 5 11 11 11l488 0c6 0 11-5 11-11 0-6-5-11-11-11z m-41 129l-406 0c-6 0-11 5-11 11 0 6 5 10 11 10l406 0c6 0 11-4 11-10 0-6-5-11-11-11z m0-257l-406 0c-6 0-11 4-11 10 0 6 5 11 11 11l406 0c6 0 11-5 11-11 0-6-5-10-11-10z"/>
<glyph unicode="&#72;" d="M340 0c-1 0-1 0-2 0l-329 52c-3 0-6 3-8 6-1 3-1 7 0 10l207 360c2 4 6 6 10 5 4 0 8-3 9-7l123-410c0-2 1-4 1-5 0-6-5-11-11-11 0 0 0 0 0 0z m-312 71l297-47-111 372z m312-71c-2 0-4 0-5 1-6 3-7 10-4 15l90 157-205 242c-4 4-3 11 1 15 5 4 11 3 15-1l210-248c3-3 3-8 1-12l-94-164c-2-3-5-5-9-5z m119 304c-1 0-1 0-2 1l-148 23c-4 0-7 3-8 6-2 3-2 7 0 10l93 163c2 3 6 5 11 5 4-1 7-4 9-8l55-184c0-1 1-3 1-5 0-6-5-11-11-11 0 0 0 0 0 0z m-132 43l117-19-44 146z m132-43c-2 0-4 1-5 2-5 3-7 9-4 14l38 68-89 106c-4 4-4 11 1 15 4 4 11 3 15-1l94-112c3-4 4-9 2-12l-43-74c-2-4-5-6-9-6z"/>
<glyph unicode="&#73;" d="M460 0l-408 0c-6 0-11 5-11 11l0 340c0 6 5 10 11 10 6 0 11-4 11-10l0-330 386 0 0 330c0 6 5 10 11 10 6 0 11-4 11-10l0-340c0-6-5-11-11-11z m41 309c-2 0-4 1-6 2l-239 177-239-177c-5-3-11-2-15 2-3 5-2 12 2 15l246 182c3 3 9 3 12 0l246-182c4-3 5-10 2-15-2-2-5-4-9-4z m-157-206l-175 0c-29 0-53 24-53 54l0 8c0 29 24 53 53 53l175 0c29 0 53-24 53-53l0-8c0-30-24-54-53-54z m-175 94c-18 0-32-15-32-32l0-8c0-18 14-32 32-32l175 0c17 0 32 14 32 32l0 8c0 17-15 32-32 32z m-11 6c-1 0-2 0-3 1-6 2-9 8-7 13l25 68c2 4 6 7 10 7l73 0c6 0 11-5 11-10 0-6-5-11-11-11l-65 0-23-61c-1-4-5-7-10-7z m196 0c-4 0-8 3-10 7l-22 61-66 0c-5 0-10 5-10 11 0 5 5 10 10 10l74 0c4 0 8-3 10-7l24-68c2-5 0-11-6-13-1-1-2-1-4-1z m-167-53l-14 0c-6 0-10 5-10 11 0 6 4 10 10 10l14 0c5 0 10-4 10-10 0-6-5-11-10-11z m153 0l-14 0c-6 0-10 5-10 11 0 6 4 10 10 10l14 0c6 0 10-4 10-10 0-6-4-11-10-11z m-162-73c-6 0-10 5-10 11l0 20c0 5 4 10 10 10 6 0 11-5 11-10l0-20c0-6-5-11-11-11z m157 0c-6 0-11 5-11 11l0 20c0 5 5 10 11 10 6 0 10-5 10-10l0-20c0-6-4-11-10-11z"/>
<glyph unicode="&#74;" d="M266 194l-232 0c-6 0-11 5-11 11l0 224c0 6 5 11 11 11l232 0c6 0 10-5 10-11l0-224c0-6-4-11-10-11z m-221 22l210 0 0 203-210 0z m429-79l-49 0c-6 0-11 4-11 10 0 6 5 11 11 11l39 0 0 111-72 108-81 0 0-219 36 0c6 0 10-5 10-11 0-6-4-10-10-10l-47 0c-5 0-10 4-10 10l0 241c0 6 5 10 10 10l98 0c3 0 7-2 9-4l76-116c1-2 2-4 2-6l0-125c0-6-5-10-11-10z m-10 114l-156 0c-6 0-11 4-11 10 0 6 5 11 11 11l156 0c6 0 11-5 11-11 0-6-5-10-11-10z m37-114l-76 0c-6 0-11 4-11 10 0 6 5 11 11 11l76 0c6 0 11-5 11-11 0-6-5-10-11-10z m-154 0l-156 0c-5 0-10 4-10 10 0 6 5 11 10 11l156 0c6 0 10-5 10-11 0-6-4-10-10-10z m-228 0l-108 0c-6 0-11 4-11 10 0 6 5 11 11 11l108 0c6 0 10-5 10-11 0-6-4-10-10-10z m37-65c-28 0-52 24-52 54 0 29 24 53 52 53 29 0 52-24 52-53 0-30-23-54-52-54z m0 86c-17 0-30-14-30-32 0-18 13-33 30-33 17 0 31 15 31 33 0 18-14 32-31 32z m231-86c-28 0-51 24-51 54 0 29 23 53 51 53 29 0 52-24 52-53 0-30-23-54-52-54z m0 86c-16 0-30-14-30-32 0-18 14-33 30-33 17 0 31 15 31 33 0 18-14 32-31 32z"/>
<glyph unicode="&#75;" d="M423 48c-49 0-89 40-89 89 0 49 40 88 89 88 49 0 89-39 89-88 0-49-40-89-89-89z m0 156c-37 0-67-30-67-67 0-38 30-68 67-68 37 0 68 30 68 68 0 37-31 67-68 67z m-321-156c-49 0-89 40-89 89 0 49 40 88 89 88 49 0 89-39 89-88 0-49-40-89-89-89z m0 156c-37 0-68-30-68-67 0-38 31-68 68-68 37 0 68 30 68 68 0 37-31 67-68 67z m-85-58c-5 0-9 3-11 8-1 6-32 143 56 176l0 34c0 6 5 11 11 11l154 0c4 0 8-3 9-7 2-4 1-8-1-11-22-24-53-69-46-92 1-2 3-11 21-15 38-8 100 18 116 59 14 37-12 77-75 112-4 3-6 7-5 11 0 5 4 8 8 9 2 0 51 9 100-27 50-36 82-103 95-198 0-6-4-11-10-12-5-1-11 4-12 9-12 89-41 151-85 183-16 12-32 18-46 22 63-48 59-92 50-116-20-54-94-83-141-73-24 6-33 20-37 30-9 30 18 71 36 94l-120 0 0-31c0-5-4-9-8-10-79-22-49-152-49-153 1-6-2-11-8-13-1 0-1 0-2 0z m320-20l-146 0c-6 0-11 5-11 11 0 5 5 10 11 10l146 0c6 0 11-5 11-10 0-6-5-11-11-11z m-326 211c-6 0-11 5-11 10l0 107c0 6 5 10 11 10 6 0 10-4 10-10l0-107c0-5-4-10-10-10z m432 29l-46 0c-6 0-11 5-11 11 0 6 5 10 11 10l46 0c6 0 11-4 11-10 0-6-5-11-11-11z"/>
<glyph unicode="&#76;" d="M412 0l-312 0c-2 0-4 1-6 2-60 45-93 104-93 168 0 63 33 123 93 168 2 1 4 2 6 2l312 0c2 0 4-1 6-2 60-45 93-105 93-168 0-64-33-123-93-168-2-1-4-2-6-2z m-308 21l304 0c53 41 82 93 82 149 0 56-29 108-82 148l-304 0c-53-40-82-92-82-148 0-56 29-108 82-149z m-92 389c-5 0-10 4-11 9-1 6 3 11 9 12l489 81c5 1 11-3 12-9 1-6-3-11-9-12l-489-81c0 0-1 0-1 0z m489-251l-490 0c-6 0-11 5-11 11 0 6 5 11 11 11l490 0c6 0 11-5 11-11 0-6-5-11-11-11z m-189 14c-1 0-1 0-1 0-6 1-10 6-10 12 10 83-14 125-15 125-3 5-1 12 4 15 5 3 11 2 14-3 2-2 30-49 18-139 0-6-5-10-10-10z m-69 151c-4 0-7 2-9 6-3 5-1 11 5 14 37 18 58 39 59 58 1 28-33 50-33 50-5 3-6 10-3 15 3 5 9 6 14 3 2-1 45-29 43-69-1-28-25-54-71-76-1-1-3-1-5-1z"/>
<glyph unicode="&#77;" d="M256 0c-6 0-11 5-11 11l0 394c0 6 5 10 11 10 6 0 11-4 11-10l0-394c0-6-5-11-11-11z m0 394c-33 0-60 26-60 59 0 33 27 59 60 59 33 0 60-26 60-59 0-33-27-59-60-59z m0 97c-21 0-39-17-39-38 0-21 18-38 39-38 21 0 39 17 39 38 0 21-18 38-39 38z m9-428c-195 0-229 160-230 161-1 6 3 12 9 13 5 1 11-3 12-8 1-6 32-144 209-144 6 0 11-5 11-11 0-6-5-11-11-11z m-254 97c-2 0-3 0-4 1-6 2-8 8-6 14l27 70c1 3 3 5 6 6 3 1 6 1 9 0l67-34c5-2 7-9 4-14-2-5-9-8-14-5l-56 28-23-59c-2-4-6-7-10-7z m236-97c-6 0-11 5-11 11 0 6 5 11 11 11 177 0 208 138 209 144 1 5 7 9 12 8 6-1 10-7 9-13-1-1-35-161-230-161z m254 97c-4 0-8 3-10 7l-23 59-56-28c-5-3-12 0-14 5-3 5-1 12 4 14l67 34c3 1 6 1 9 0 3-1 5-3 6-6l27-70c2-6 0-12-6-14-1-1-2-1-4-1z m-168 182l-154 0c-6 0-11 5-11 10 0 6 5 11 11 11l154 0c6 0 11-5 11-11 0-5-5-10-11-10z"/>
<glyph unicode="&#78;" d="M299 0l-170 0c-47 0-85 34-85 76l0 257c0 6 4 10 10 10l320 0c6 0 10-4 10-10l0-257c0-42-38-76-85-76z m-234 322l0-246c0-30 29-55 64-55l170 0c35 0 64 25 64 55l0 246z m393-186l-84 0c-6 0-11 5-11 10 0 6 5 11 11 11l73 0 0 122-66 0c-6 0-10 5-10 11 0 6 4 10 10 10l77 0c6 0 10-4 10-10l0-143c0-6-4-11-10-11z m-244 241c-6 0-11 5-11 11l0 113c0 6 5 11 11 11 6 0 11-5 11-11l0-113c0-6-5-11-11-11z m91 0c-6 0-11 5-11 11l0 68c0 6 5 11 11 11 6 0 11-5 11-11l0-68c0-6-5-11-11-11z m-182 0c-6 0-11 5-11 11l0 68c0 6 5 11 11 11 6 0 11-5 11-11l0-68c0-6-5-11-11-11z"/>
<glyph unicode="&#79;" d="M466 0l-420 0c-25 0-46 19-46 43l0 379c0 24 21 43 46 43l420 0c25 0 46-19 46-43l0-379c0-24-21-43-46-43z m-420 444c-13 0-25-10-25-22l0-379c0-12 12-22 25-22l420 0c13 0 25 10 25 22l0 379c0 12-12 22-25 22z m66-42c-6 0-10 5-10 11l0 88c0 6 4 11 10 11 6 0 11-5 11-11l0-88c0-6-5-11-11-11z m144 0c-6 0-11 5-11 11l0 88c0 6 5 11 11 11 6 0 11-5 11-11l0-88c0-6-5-11-11-11z m144 0c-6 0-11 5-11 11l0 88c0 6 5 11 11 11 6 0 10-5 10-11l0-88c0-6-4-11-10-11z m42-330l-374 0c-6 0-11 5-11 11l0 273c0 6 5 11 11 11l374 0c6 0 11-5 11-11l0-273c0-6-5-11-11-11z m-364 21l353 0 0 252-353 0z m127 40c-6 0-11 4-11 10l0 133-17-10c-5-3-11-2-14 3-4 5-2 12 3 15l33 20c3 2 7 2 11 1 3-2 5-6 5-10l0-152c0-6-5-10-10-10z m85 5c-19 0-38 6-44 10-5 3-7 9-4 14 3 5 9 7 14 4 5-3 36-13 53-3 8 5 12 14 12 28 0 13-3 23-11 29-14 11-40 9-49 7-3-1-7 0-10 3-2 2-3 6-2 10l15 53c1 5 5 8 10 8l64 0c6 0 11-5 11-11 0-6-5-10-11-10l-56 0-9-30c15 0 35-1 50-13 13-10 20-26 20-46 0-27-13-40-23-46-9-5-19-7-30-7z"/>
<glyph unicode="&#80;" d="M256 103c-85 0-153 68-153 153 0 85 68 153 153 153 85 0 153-68 153-153 0-85-68-153-153-153z m0 285c-73 0-132-59-132-132 0-73 59-132 132-132 73 0 132 59 132 132 0 73-59 132-132 132z m0 36c-6 0-11 4-11 10l0 53c0 5 5 10 11 10 6 0 11-5 11-10l0-53c0-6-5-10-11-10z m0-409c-6 0-11 4-11 10l0 53c0 6 5 10 11 10 6 0 11-4 11-10l0-53c0-6-5-10-11-10z m42 403c0 0-1 1-2 1-6 1-9 7-8 13l18 72c1 6 7 9 13 8 5-2 9-7 8-13l-18-72c-1-5-6-9-11-9z m-102-418c-1 0-2 0-3 0-5 2-9 7-8 13l18 72c2 6 7 10 13 8 6-1 9-7 8-13l-18-72c-1-5-5-8-10-8z m291 245l-53 0c-6 0-10 5-10 11 0 6 4 11 10 11l53 0c6 0 10-5 10-11 0-6-4-11-10-11z m-409 0l-53 0c-5 0-10 5-10 11 0 6 5 11 10 11l53 0c6 0 10-5 10-11 0-6-4-11-10-11z m423-60c0 0-1 0-2 0l-72 18c-6 2-10 7-8 13 1 6 7 9 13 8l72-18c6-1 9-7 8-13-2-5-6-8-11-8z m-418 103c-1 0-2 0-3 0l-72 18c-6 1-9 7-8 13 2 5 7 9 13 8l72-18c6-2 10-7 8-13-1-5-5-8-10-8z m262 112c-2 0-4 0-5 1-5 3-7 10-4 15l26 45c3 5 9 7 15 4 5-3 6-9 3-15l-26-45c-2-3-5-5-9-5z m-204-354c-2 0-4 0-6 1-5 3-6 9-3 15l26 45c3 5 9 7 14 4 5-3 7-10 4-15l-26-45c-2-4-6-5-9-5z m238 328c-2 0-5 1-7 3-4 4-4 11 0 15l51 54c4 4 11 4 15 0 4-4 4-11 0-15l-51-54c-2-2-5-3-8-3z m-298-311c-2 0-5 1-7 3-4 4-4 11 0 15l51 54c4 4 11 4 15 0 4-4 4-11 0-15l-51-54c-2-2-5-3-8-3z m375 67c-2 0-4 1-6 2l-45 26c-5 3-7 9-4 14 3 5 10 7 15 4l45-26c5-3 7-9 4-15-2-3-6-5-9-5z m-354 204c-2 0-4 1-6 2l-45 26c-5 3-7 9-4 15 3 5 9 6 15 3l45-26c5-3 7-9 4-14-2-4-6-6-9-6z m336-263c-2 0-5 1-7 3l-54 51c-4 4-4 11 0 15 4 4 11 4 15 0l54-51c4-4 4-11 0-15-2-2-5-3-8-3z m-311 298c-2 0-5 1-7 3l-54 51c-4 4-4 11 0 15 4 4 11 4 15 0l54-51c4-4 4-11 0-15-2-2-5-3-8-3z m282-33c-3 0-7 2-9 5-3 6-1 12 4 15l45 27c5 3 12 1 15-4 3-5 1-12-4-15l-45-26c-2-1-4-2-6-2z m-351-208c-4 0-8 2-10 5-3 5-1 12 4 15l45 26c5 3 12 2 15-3 3-6 1-12-4-15l-45-27c-2-1-3-1-5-1z m369 169c-5 0-9 3-11 8-1 5 2 11 7 13l72 22c5 1 11-2 13-8 2-5-2-11-7-13l-71-21c-1-1-2-1-3-1z m-413-125c-4 0-9 3-10 8-2 5 2 11 7 13l71 21c6 2 12-1 14-7 1-5-2-11-7-13l-72-22c-1 0-2 0-3 0z m360-125c-4 0-8 2-10 5l-26 45c-3 5-2 12 4 15 5 3 11 1 14-4l27-45c3-5 1-12-4-15-2-1-4-1-5-1z m-209 352c-4 0-7 2-9 5l-27 45c-3 5-1 12 4 15 5 3 12 1 15-4l26-45c3-5 2-12-3-15-2-1-4-1-6-1z m164-395c-4 0-8 3-10 7l-21 71c-2 6 1 12 7 14 5 1 11-2 13-8l22-71c1-5-2-11-8-13-1 0-2 0-3 0z m-125 412c-4 0-9 3-10 7l-22 72c-1 5 2 11 8 13 5 2 11-2 13-7l21-71c2-6-1-12-7-14-1 0-2 0-3 0z"/>
<glyph unicode="&#81;" d="M163 211c-83 0-150 67-150 150 0 83 67 151 150 151 84 0 151-68 151-151 0-83-67-150-151-150z m0 280c-71 0-129-58-129-130 0-71 58-129 129-129 72 0 130 58 130 129 0 72-58 130-130 130z m326-466c-3 0-6 1-8 3l-222 222c-4 4-4 11 0 15 5 4 11 4 15 0l222-221c4-5 4-11 0-16-2-2-5-3-7-3z m-85-25c-3 0-6 1-8 3-4 4-4 11 0 15l55 55c4 5 11 5 15 0 5-4 5-11 0-15l-55-55c-2-2-5-3-7-3z m-94 93c-2 0-5 1-7 4-4 4-4 10 0 15l55 55c4 4 11 4 15 0 4-4 4-11 0-15l-55-55c-2-3-5-4-8-4z m73-17c-3 0-6 1-8 3-4 4-4 11 0 15l28 28c4 4 11 4 15 0 4-4 4-11 0-15l-28-28c-2-2-4-3-7-3z"/>
<glyph unicode="&#82;" d="M476 99l-440 0c-6 0-11 4-11 10 0 142 104 257 231 257 127 0 231-115 231-257 0-6-5-10-11-10z m-429 21l418 0c-5 125-97 224-209 224-112 0-204-99-209-224z m454-75l-490 0c-6 0-11 5-11 11 0 6 5 10 11 10l490 0c6 0 11-4 11-10 0-6-5-11-11-11z m-245 324c-27 0-49 22-49 49 0 27 22 49 49 49 27 0 49-22 49-49 0-27-22-49-49-49z m0 77c-15 0-28-13-28-28 0-15 13-28 28-28 15 0 28 13 28 28 0 15-13 28-28 28z"/>
<glyph unicode="&#83;" d="M468 206l-424 0c-5 0-10 5-10 11 0 117 99 212 222 212 123 0 222-95 222-212 0-6-5-11-10-11z m-413 22l402 0c-6 100-94 180-201 180-107 0-195-80-201-180z m201 180c-30 0-54 23-54 52 0 29 24 52 54 52 30 0 54-23 54-52 0-29-24-52-54-52z m0 83c-18 0-33-14-33-31 0-17 15-31 33-31 18 0 33 14 33 31 0 17-15 31-33 31z m-92-491l-131 0c-4 0-8 2-9 5-2 4-2 8 0 11 2 5 70 122 131 131 49 8 133 9 164 9 6 0 9 0 10 0 0 0 1 0 1 0 12 0 25-12 26-26 1-7-1-24-32-30-7-1-15-2-23-4 18 0 28 3 33 5 10 5 19 9 27 12 18 8 32 15 41 25 7 8 19 11 29 11 12 0 21-4 25-12 3-6 5-15-3-28-1 0-1 0-1-1-3-3-68-79-129-79l-2 0c-10 1-20 1-30 2-14 1-30 2-45 2-41 0-63-8-72-27-2-4-5-6-10-6z m-112 21l106 0c18 29 56 33 88 33 16 0 32-1 47-2 10 0 19-1 28-1l2 0c49 0 107 65 112 71 3 3 3 5 3 5 0 0-3 1-7 1-6 0-11-2-13-4-11-14-29-22-49-30-8-4-16-8-25-12-10-5-23-7-41-7-35 0-76 10-78 10-5 2-8 6-8 11 0 5 4 10 9 10 1 0 57 8 94 15 11 2 15 5 15 7 0 3-4 6-5 7 0 0-4 0-11 0-28-1-114-1-160-9-37-6-83-67-107-105z m449 151l-490 0c-6 0-11 5-11 11 0 6 5 10 11 10l490 0c6 0 11-4 11-10 0-6-5-11-11-11z"/>
<glyph unicode="&#84;" d="M330 46l-148 0c-33 0-60 27-60 59l0 216c0 32 27 59 60 59l148 0c33 0 60-27 60-59l0-216c0-32-27-59-60-59z m-148 313c-21 0-38-17-38-38l0-216c0-21 17-38 38-38l148 0c21 0 38 17 38 38l0 216c0 21-17 38-38 38z m132 0l-119 0c-6 0-10 5-10 10l0 132c0 6 4 11 10 11l119 0c6 0 11-5 11-11l0-132c0-5-5-10-11-10z m-108 21l97 0 0 111-97 0z m-34-380c-6 0-10 5-10 11l0 46c0 6 4 10 10 10 6 0 11-4 11-10l0-46c0-6-5-11-11-11z m168 0c-6 0-11 5-11 11l0 46c0 6 5 10 11 10 6 0 10-4 10-10l0-46c0-6-4-11-10-11z m-36 258l-96 0c-6 0-11 5-11 11 0 5 5 10 11 10l96 0c6 0 11-5 11-10 0-6-5-11-11-11z"/>
<glyph unicode="&#85;" d="M87 52c-48 0-87 39-87 87 0 49 39 88 87 88 48 0 88-39 88-88 0-48-40-87-88-87z m0 153c-36 0-66-29-66-66 0-36 30-66 66-66 37 0 66 30 66 66 0 37-29 66-66 66z m338-153c-48 0-88 39-88 87 0 49 40 88 88 88 48 0 87-39 87-88 0-48-39-87-87-87z m0 153c-37 0-66-29-66-66 0-36 29-66 66-66 36 0 66 30 66 66 0 37-30 66-66 66z m-123-43l-89 0-2 7c-52 136-182 90-188 88-5-2-11 1-14 6-2 6 1 12 7 14 1 0 151 54 212-93l66 0c7 20 29 73 78 95 36 16 78 13 124-11 5-2 8-9 5-14-3-5-9-7-14-5-41 20-76 24-106 11-50-23-68-89-68-90l-2-8z m-177 106c-5 0-10 4-10 10l0 156c0 6 5 11 10 11 6 0 11-5 11-11l0-156c0-6-5-10-11-10z m289 0c-6 0-11 4-11 10l0 156c0 6 5 11 11 11 6 0 10-5 10-11l0-156c0-6-4-10-10-10z m36 170l-372 0c-5 0-10 5-10 11 0 6 5 11 10 11l372 0c6 0 10-5 10-11 0-6-4-11-10-11z m-286-198c-3 0-6 1-8 3-4 5-4 11 0 15l72 73c4 4 11 4 15 0 4-4 4-11 0-15l-72-73c-2-2-4-3-7-3z m100 43c-3 0-6 1-8 3l-64 69c-4 4-4 11 0 15 5 4 11 4 15-1l65-68c4-4 4-11-1-15-2-2-4-3-7-3z"/>
<glyph unicode="&#86;" d="M501 0l-490 0c-6 0-11 5-11 11l0 490c0 6 5 11 11 11l490 0c6 0 11-5 11-11l0-490c0-6-5-11-11-11z m-480 21l470 0 0 470-470 0z m385-21l-300 0c-6 0-11 5-11 11l0 330c0 6 5 11 11 11l300 0c6 0 11-5 11-11l0-330c0-6-5-11-11-11z m-290 21l280 0 0 310-280 0z m99 22c-2 0-4 1-6 2-14 9-23 17-33 32-9 14-12 26-12 43 0 5 0 11 0 18 2 19 3 40-6 52-2 3-2 8 0 11 2 4 6 6 10 6 16-1 37-11 51-26 1 1 1 2 1 2 1 2 2 4 2 5 4 9 8 18 13 27 1 1 2 3 2 4 4 6 7 10 7 17 0 5 0 11 0 17 0 3 0 6 0 9 0 4 2 7 5 9 3 2 7 2 10 1 21-9 44-29 47-57 0-8 0-17 0-25 4 1 8 2 11 2 8 2 17 2 24 1l4 0c5 0 9-4 10-9 1-9 0-17-2-24 0-4-1-9-1-13 0-3 0-6 0-8 0-7 0-13 0-19-3-34-22-69-58-74-6-1-12 3-12 9-1 6 3 11 9 12 24 3 37 30 40 54 0 6 0 11 0 17 0 3 0 6 0 9 0 6 1 11 1 17 1 3 1 6 2 8-5 0-10 0-14-1-8-1-15-4-16-6-2-6-7-9-12-8-6 1-10 6-9 12l0 1c1 14 3 29 1 43-1 13-9 23-18 30 0-3 0-6-1-9 0-11-5-19-9-26-1-1-2-3-3-4-4-7-7-15-11-23 0-3-1-4-2-6-3-6-7-15-6-19 1-6-3-11-9-12-5-1-11 3-12 8-3 11-15 22-28 28 3-14 2-29 1-44-1-6-1-11-1-16 0-13 3-21 9-31 8-12 15-18 27-26 5-4 6-10 3-15-2-3-5-5-9-5z"/>
<glyph unicode="&#87;" d="M256 57c-92 0-155 225-155 300 0 85 69 155 155 155 86 0 155-70 155-155 0-75-63-300-155-300z m0 434c-74 0-134-60-134-134 0-78 64-278 134-278 70 0 134 200 134 278 0 74-60 134-134 134z m84-217l-168 0c-12 0-22 10-22 21l0 90c0 11 10 21 22 21l168 0c12 0 22-10 22-21l0-90c0-11-10-21-22-21z m0 21l0-10z m-168 90l0-90 168 0 0 90z m-142-385c-3 0-5 1-7 2-5 4-5 11-2 15l127 160c4 5 11 5 15 2 5-4 6-11 2-15l-127-160c-2-3-5-4-8-4z m452 0c-3 0-6 1-8 4l-127 160c-4 4-3 11 2 15 4 3 11 3 15-2l127-160c3-4 3-11-2-15-2-1-4-2-7-2z m-37 33l-378 0c-6 0-10 5-10 11 0 6 4 11 10 11l378 0c6 0 10-5 10-11 0-6-4-11-10-11z"/>
<glyph unicode="&#88;" d="M207 181c-99 0-179 90-179 199 0 7 0 14 1 21 0 5 5 9 11 9l334 0c5 0 10-4 10-9 1-7 1-14 1-21 0-109-80-199-178-199z m-157 208c-1-3-1-6-1-9 0-98 71-177 158-177 86 0 157 79 157 177 0 3 0 6 0 9z m157-389c-6 0-11 5-11 11l0 172c0 6 5 11 11 11 6 0 10-5 10-11l0-172c0-6-4-11-10-11z m80 0l-161 0c-6 0-10 5-10 11 0 6 4 10 10 10l161 0c6 0 11-4 11-10 0-6-5-11-11-11z m-30 299c-8 0-15 1-22 4-5 3-10 5-14 7-10 6-21 11-31 13-13 3-28 1-47-4l-4-2c-17-4-34-9-52-9-11 1-22 4-31 10-2 2-4 3-6 4-2 2-4 4-6 4-6 2-9 7-8 13 1 6 7 9 13 8 6-1 11-5 14-8 1-1 3-2 4-3 6-4 13-6 21-6 15-1 30 4 45 8l4 1c14 4 35 9 57 5 13-2 25-9 37-15 4-2 8-4 13-6 13-6 26-2 41 4 9 3 17 6 27 8 23 3 40 0 55-13 5-3 6-10 2-15-3-4-10-5-15-1-11 8-22 10-39 8-7-2-15-4-23-7-11-4-23-8-35-8z m-65 24c-3 0-6 1-8 4l-153 167c-4 4-4 11 1 15 4 4 11 4 15 0l153-168c4-4 3-11-1-15-2-2-5-3-7-3z m183-30c-6 0-11 5-11 11 0 6 5 11 11 11 48 0 88 39 88 88 0 48-40 88-88 88-49 0-88-40-88-88 0-6-5-11-11-11-6 0-11 5-11 11 0 60 49 109 110 109 60 0 109-49 109-109 0-61-49-110-109-110z m0 101c-6 0-11 4-11 10l0 92c0 6 5 11 11 11 6 0 10-5 10-11l0-92c0-6-4-10-10-10z m92 0l-89 0c-6 0-11 4-11 10 0 6 5 11 11 11l89 0c6 0 11-5 11-11 0-6-5-10-11-10z m-22-64c-2 0-5 1-7 3l-136 126c-5 4-5 11-1 15 4 4 11 4 15 1l136-126c5-4 5-11 1-15-2-2-5-4-8-4z m-67 67c-3 0-6 1-8 3-4 4-4 11 0 15l64 59c4 4 11 4 15 0 4-4 4-11-1-15l-63-59c-2-2-5-3-7-3z"/>
<glyph unicode="&#89;" d="M257 30c-61 0-102 14-128 44-37 44-27 111-19 161 2 16 5 31 5 42 0 70 63 127 142 127 78 0 142-57 142-127 0-11 2-25 4-42 7-49 17-117-21-162-25-28-67-43-125-43z m0 353c-67 0-121-47-121-106 0-13-3-28-5-46-8-47-17-107 15-143 20-24 58-37 111-37 51 0 88 12 109 36 32 37 23 97 16 145-3 18-5 33-5 45 0 59-54 106-120 106z m117-78l-230 0c-6 0-11 5-11 11 0 6 5 11 11 11l230 0c6 0 11-5 11-11 0-6-5-11-11-11z m24-141l-278 0c-6 0-10 4-10 10 0 6 4 11 10 11l278 0c6 0 11-5 11-11 0-6-5-10-11-10z m-371-164c0 0-1 0-2 0-6 1-9 7-8 13 16 76 101 88 105 88 6 1 11-3 12-9 0-6-4-11-10-12-3 0-74-10-86-71-1-6-6-9-11-9z m458 0c-5 0-10 3-11 9-12 61-86 71-86 71-6 1-10 6-10 12 1 6 6 10 12 9 4 0 89-12 105-88 1-6-2-12-8-13-1 0-2 0-2 0z m16 446l-490 0c-6 0-11 4-11 10 0 6 5 11 11 11l490 0c6 0 11-5 11-11 0-6-5-10-11-10z m-242-56c-6 0-10 5-10 11l0 100c0 6 4 11 10 11 6 0 11-5 11-11l0-100c0-6-5-11-11-11z"/>
<glyph unicode="&#90;" d="M107 403c-4 0-8 3-10 7-2 6 1 12 6 14l236 87c3 2 7 1 10-1 3-2 5-5 5-9l0-87c0-6-5-11-11-11-6 0-11 5-11 11l0 72-221-82c-1-1-3-1-4-1z m298-403l-298 0c-6 0-11 5-11 11l0 403c0 6 5 11 11 11l298 0c6 0 11-5 11-11l0-403c0-6-5-11-11-11z m-287 21l276 0 0 382-276 0z m138 85c-59 0-107 47-107 106 0 59 48 107 107 107 59 0 107-48 107-107 0-59-48-106-107-106z m0 192c-47 0-85-39-85-86 0-47 38-85 85-85 47 0 85 38 85 85 0 47-38 86-85 86z m0-192c-31 0-54 45-54 106 0 61 23 107 54 107 31 0 54-46 54-107 0-61-23-106-54-106z m0 192c-13 0-32-34-32-86 0-52 19-85 32-85 13 0 32 33 32 85 0 52-19 86-32 86z m92-96l-184 0c-5 0-10 4-10 10 0 6 5 11 10 11l184 0c5 0 10-5 10-11 0-6-5-10-10-10z"/>
<glyph unicode="&#48;" d="M11 0c-6 0-11 5-11 11l0 490c0 6 5 11 11 11 6 0 10-5 10-11l0-490c0-6-4-11-10-11z m490 427l-489 0c-6 0-10 5-10 11 0 6 4 10 10 10l489 0c6 0 11-4 11-10 0-6-5-11-11-11z m-82-339l-309 0c-23 0-42 20-42 43l0 218c0 24 19 43 42 43l309 0c24 0 43-19 43-43l0-218c0-23-19-43-43-43z m-309 283c-11 0-21-10-21-22l0-218c0-12 10-21 21-21l309 0c12 0 22 9 22 21l0 218c0 12-10 22-22 22z m45-31c-6 0-11 5-11 11l0 80c0 6 5 11 11 11 6 0 10-5 10-11l0-80c0-6-4-11-10-11z m220 0c-6 0-11 5-11 11l0 80c0 6 5 11 11 11 6 0 11-5 11-11l0-80c0-6-5-11-11-11z m-215-14l46 0 0-10-35 0 0-28 33 0 0-10-33 0 0-39-11 0z m136-43c0-29-18-45-40-45-23 0-39 18-39 44 0 27 17 45 40 45 24 0 39-18 39-44z m-67-1c0-18 10-35 28-35 17 0 27 16 27 36 0 17-9 35-27 35-19 0-28-17-28-36z m82 43c5 1 13 1 21 1 12 0 19-2 25-7 4-4 7-9 7-16 0-11-8-19-17-22l0 0c7-3 11-9 13-18 3-12 5-20 7-24l-12 0c-1 3-3 10-6 21-2 12-7 16-17 17l-10 0 0-38-11 0 0 86z m11-40l11 0c12 0 19 7 19 17 0 11-8 16-19 16-6 0-10-1-11-1z m-192-67c5 1 14 2 21 2 12 0 20-3 25-7 5-4 7-10 7-17 0-11-7-19-16-22l0 0c6-2 10-9 12-18 3-12 5-20 7-23l-11 0c-2 2-4 10-6 20-3 12-7 17-18 17l-10 0 0-37-11 0z m11-39l11 0c12 0 20 6 20 16 0 11-8 16-20 16-5 0-9 0-11-1z m102-6l-33 0 0-31 37 0 0-9-48 0 0 86 46 0 0-9-35 0 0-28 33 0z m19-40l0 86 12 0 27-44c7-10 12-19 16-28l0 0c-1 12-1 22-1 36l0 36 10 0 0-86-11 0-27 44c-6 9-12 19-16 28l-1 0c1-11 1-21 1-35l0-37z m100 77l-26 0 0 9 64 0 0-9-26 0 0-77-12 0z"/>
<glyph unicode="&#49;" d="M256 0c-141 0-256 115-256 256 0 141 115 256 256 256 141 0 256-115 256-256 0-141-115-256-256-256z m0 491c-129 0-235-106-235-235 0-129 106-235 235-235 129 0 235 106 235 235 0 129-106 235-235 235z m-143-388c-3 0-5 1-7 3-4 3-4 9-2 13l118 169c0 1 1 2 2 2l169 118c4 2 10 2 13-2 4-3 4-9 2-13l-118-169c0-1-1-2-2-2l-169-118c-2-1-4-1-6-1z m125 171l-82-118 118 82 82 118z m18 173c-6 0-11 5-11 11l0 39c0 6 5 11 11 11 6 0 11-5 11-11l0-39c0-6-5-11-11-11z m0-443c-6 0-11 5-11 11l0 39c0 6 5 11 11 11 6 0 11-5 11-11l0-39c0-6-5-11-11-11z m241 241l-39 0c-6 0-11 5-11 11 0 6 5 11 11 11l39 0c6 0 11-5 11-11 0-6-5-11-11-11z m-443 0l-39 0c-6 0-11 5-11 11 0 6 5 11 11 11l39 0c6 0 11-5 11-11 0-6-5-11-11-11z"/>
<glyph unicode="&#50;" d="M446 0l-136 0c-36 0-66 33-66 73l0 366c0 40 30 73 66 73l136 0c36 0 66-33 66-73l0-366c0-40-30-73-66-73z m-136 491c-24 0-44-24-44-52l0-366c0-28 20-52 44-52l136 0c25 0 45 24 45 52l0 366c0 28-20 52-45 52z m68-247c-47 0-85 38-85 85 0 47 38 86 85 86 47 0 85-39 85-86 0-47-38-85-85-85z m0 149c-35 0-64-28-64-64 0-35 29-64 64-64 35 0 64 29 64 64 0 36-29 64-64 64z m-123-139l-244 0c-6 0-11 5-11 11l0 182c0 6 5 11 11 11l244 0c6 0 11-5 11-11l0-182c0-6-5-11-11-11z m-234 22l223 0 0 161-223 0z m151 70l-79 0c-6 0-10 4-10 10 0 6 4 11 10 11l79 0c6 0 11-5 11-11 0-6-5-10-11-10z m206-268l-50 0c-5 0-10 4-10 10 0 6 5 11 10 11l50 0c6 0 11-5 11-11 0-6-5-10-11-10z"/>
<glyph unicode="&#51;" d="M502 0c-1 0-1 0-1 0l-490 0c-4 0-7 2-9 4-2 3-3 7-1 10l163 491c1 4 5 7 10 7l164 0c5 0 9-3 10-7l163-489c1-2 1-3 1-5 0-6-5-11-10-11z m-477 21l462 0-157 470-148 0z m237 399c-6 0-11 5-11 11l0 26c0 6 5 11 11 11 6 0 11-5 11-11l0-26c0-6-5-11-11-11z m0-153c-6 0-11 5-11 11l0 89c0 6 5 10 11 10 6 0 11-4 11-10l0-89c0-6-5-11-11-11z m0-209c-6 0-11 5-11 11l0 143c0 6 5 10 11 10 6 0 11-4 11-10l0-143c0-6-5-11-11-11z"/>
<glyph unicode="&#52;" d="M136 180c0 15-13 28-29 28-16 0-28-13-28-28 0-16 12-29 28-29 16 0 29 13 29 29z m297 0c0 15-12 28-28 28-16 0-29-13-29-28 0-16 13-29 29-29 16 0 28 13 28 29z m-326-180c-6 0-11 5-11 11l0 64c0 6 5 11 11 11 6 0 11-5 11-11l0-64c0-6-5-11-11-11z m298 0c-6 0-11 5-11 11l0 64c0 6 5 11 11 11 6 0 11-5 11-11l0-64c0-6-5-11-11-11z m58 73l-414 0c-27 0-49 22-49 49l0 127c0 27 22 48 49 48l15 0 23 76c1 26 22 47 48 47l242 0c26 0 47-21 48-47l23-76 15 0c13 0 25-5 35-14 9-9 14-21 14-34l0-127c0-27-22-49-49-49z m-414 203c-15 0-28-12-28-27l0-127c0-15 13-28 28-28l414 0c15 0 28 13 28 28l0 127c0 7-3 14-8 19-6 5-12 8-20 8l-23 0c-5 0-9 3-10 8l-26 84c0 1 0 3 0 4 0 15-12 27-27 27l-242 0c-15 0-27-12-27-27 0-1 0-3 0-4l-26-84c-1-5-5-8-10-8z m323 0l-232 0c-3 0-7 2-9 4-2 3-2 6-1 10l16 53c1 19 16 33 34 33l152 0c18 0 33-14 34-33l16-53c1-4 1-7-1-10-2-2-6-4-9-4z m-218 21l204 0-13 42c0 1 0 2 0 3 0 7-6 13-13 13l-152 0c-7 0-13-6-13-13 0-1 0-2 0-3z m195 102l-186 0c-6 0-11 5-11 11l0 91c0 6 5 11 11 11l186 0c6 0 11-5 11-11l0-91c0-6-5-11-11-11z m-176 21l166 0 0 71-166 0z"/>
<glyph unicode="&#53;" d="M502 207c-1 0-1 0-1 0l-490 0c-4 0-8 2-10 5-1 3-2 7 0 11l41 72c2 3 5 5 9 5l410 0c4 0 7-2 9-5l40-71c1-2 2-4 2-7 0-6-5-10-10-10z m-473 21l454 0-28 51-398 0z m432 52c-6 0-11 5-11 11l0 88c-192 102-358 18-388 0l0-88c0-6-5-11-11-11-6 0-10 5-10 11l0 95c0 3 1 7 4 8 2 2 196 124 421 1 3-2 6-6 6-9l0-95c0-6-5-11-11-11z m-228-1l-134 0c-5 0-10 5-10 11l0 75c0 6 5 11 10 11l134 0c6 0 11-5 11-11l0-75c0-6-5-11-11-11z m-123 21l113 0 0 54-113 0z m391-238l-63 0c-6 0-10 5-10 10l0 27-344 0 0-27c0-5-4-10-10-10l-63 0c-6 0-11 5-11 10l0 145c0 6 5 11 11 11l490 0c6 0 11-5 11-11l0-145c0-5-5-10-11-10z m-52 21l42 0 0 124-470 0 0-124 42 0 0 27c0 6 5 11 11 11l364 0c6 0 11-5 11-11z m-40 196l-134 0c-5 0-10 5-10 11l0 75c0 6 5 11 10 11l134 0c6 0 11-5 11-11l0-75c0-6-5-11-11-11z m-123 21l113 0 0 54-113 0z"/>
<glyph unicode="&#54;" d="M86 158c-6 0-13 1-18 5-9 5-15 13-17 22l-50 202c-5 20 7 40 26 45l314 79c9 2 19 1 27-4 9-5 15-13 17-23l50-202c1-5-2-11-8-12-6-2-11 2-13 7l-50 202c-1 4-3 7-7 10-3 2-7 2-11 1l-313-79c-8-2-13-10-11-19l50-201c1-4 3-8 7-10 3-2 7-2 11-1l34 8c6 2 12-2 13-7 2-6-2-12-7-13l-35-9c-3-1-6-1-9-1z m390-158l-323 0c-20 0-37 16-37 37l0 208c0 20 17 36 37 36l323 0c20 0 36-16 36-36l0-208c0-10-4-19-11-26-6-7-16-11-25-11z m-323 260c-9 0-15-7-15-15l0-208c0-9 6-16 15-16l323 0c8 0 15 7 15 16l0 208c0 8-7 15-15 15z m348-62l-367 0c-6 0-11 4-11 10 0 6 5 11 11 11l367 0c6 0 11-5 11-11 0-6-5-10-11-10z m0-68l-367 0c-6 0-11 5-11 11 0 5 5 10 11 10l367 0c6 0 11-5 11-10 0-6-5-11-11-11z m-67-69l-55 0c-6 0-11 4-11 10 0 6 5 11 11 11l55 0c6 0 11-5 11-11 0-6-5-10-11-10z m-219 305c-2-2-7-4-13-6-15-3-28 3-32 20-3 16 5 30 21 34 6 1 11 1 12 0l0-6c-3 1-6 1-11 0-12-3-18-12-15-26 3-12 12-19 25-16 4 1 8 3 10 5z m13 18l-1-17-7-2 5 56 8 2 30-48-7-1-10 15z m16 9l-9 14c-2 3-3 6-5 9l0 0c0-3 0-7 0-10l-2-16z m14 35c4 1 8 3 13 4 7 2 12 1 16-1 3-2 5-5 6-9 2-6-2-12-7-15l0 0c5-1 8-4 10-9 4-7 6-11 8-13l-7-2c-1 2-3 6-6 12-4 7-7 9-13 7l-6-1 5-22-7-2z m12-22l7 2c7 1 11 6 10 12-2 7-7 8-14 7-4-1-6-2-7-2z m29 31c4 2 9 4 14 5 10 2 17 1 22-2 6-3 10-8 12-16 2-9 1-16-3-22-3-6-11-11-21-13-4-1-8-2-12-2z m18-43c1 0 4 0 6 1 15 3 20 13 17 27-3 12-11 18-25 15-4-1-6-2-8-3z"/>
<glyph unicode="&#55;" d="M11 5c-6 0-11 5-11 11l0 238c0 6 5 11 11 11 6 0 10-5 10-11l0-238c0-6-4-11-10-11z m127-5c-6 0-10 5-10 11l0 93-117 0c-6 0-11 5-11 11 0 6 5 11 11 11l127 0c6 0 11-5 11-11l0-104c0-6-5-11-11-11z m-32 104c-2 0-3 1-5 1-5 3-7 9-5 15l29 60-110 0c-6 0-10 5-10 11 0 6 4 10 10 10l127 0c4 0 7-2 9-5 2-3 3-7 1-10l-36-76c-2-3-6-6-10-6z m395-99c-6 0-10 5-10 11l0 238c0 6 4 11 10 11 6 0 11-5 11-11l0-238c0-6-5-11-11-11z m-127-5c-6 0-11 5-11 11l0 104c0 6 5 11 11 11l127 0c6 0 11-5 11-11 0-6-5-11-11-11l-117 0 0-93c0-6-4-11-10-11z m32 104c-4 0-8 3-9 6l-37 76c-2 3-1 7 1 10 2 3 5 5 9 5l127 0c6 0 11-4 11-10 0-6-5-11-11-11l-110 0 29-60c2-6 0-12-5-15-2 0-3-1-5-1z m-34 111l-232 0c-6 0-10 5-10 10 0 6 4 11 10 11l232 0c6 0 10-5 10-11 0-5-4-10-10-10z m-116-210c-6 0-11 5-11 11l0 198c0 6 5 11 11 11 6 0 11-5 11-11l0-198c0-6-5-11-11-11z m38 0l-76 0c-6 0-11 5-11 11 0 6 5 10 11 10l76 0c6 0 11-4 11-10 0-6-5-11-11-11z m-38 238c-6 0-11 5-11 11l0 95c0 6 5 11 11 11 6 0 11-5 11-11l0-95c0-6-5-11-11-11z m197 101l-394 0c-4 0-7 1-9 4-2 3-2 7-1 10 27 70 112 118 207 118 95 0 180-48 207-118 1-3 1-7-1-10-2-3-5-4-9-4z m-377 21l360 0c-29 54-100 90-180 90-80 0-151-36-180-90z m180 101c-6 0-11 5-11 11l0 24c0 6 5 11 11 11 6 0 11-5 11-11l0-24c0-6-5-11-11-11z"/>
<glyph unicode="&#56;" d="M362 67l-212 0c-15 0-29 7-40 18-11 11-17 27-16 43l8 205c2 33 29 60 61 60l186 0c32 0 59-27 61-60l8-205c1-16-5-32-16-43-11-11-25-18-40-18z m-199 305c-21 0-39-18-39-39l-9-206c0-10 3-20 10-27 7-7 16-11 25-11l212 0c9 0 18 4 25 10 7 8 10 18 10 28l-9 206c0 21-18 39-39 39z m163-179l-140 0c-18 0-32 15-32 33l0 79c0 18 14 33 32 33l140 0c18 0 32-15 32-33l0-79c0-18-14-33-32-33z m-140 123c-6 0-11-5-11-11l0-80c0-6 5-11 11-11l140 0c6 0 11 5 11 11l0 80c0 6-5 11-11 11z m-110-316c-3 0-6 1-8 4-4 4-3 11 1 15l79 67c5 4 12 4 15-1 4-4 4-11-1-15l-79-67c-2-2-5-3-7-3z m360 0c-2 0-5 1-7 3l-79 67c-5 4-5 11-1 15 3 5 10 5 15 1l79-67c4-4 5-11 1-15-2-3-5-4-8-4z m-15 13l-330 0c-6 0-11 4-11 10 0 6 5 11 11 11l330 0c6 0 11-5 11-11 0-6-5-10-11-10z m20 57c-3 0-5 1-7 3-5 4-5 10-1 15 37 44 58 101 58 160 0 134-106 243-235 243-129 0-235-109-235-243 0-59 21-115 58-159 4-5 3-12-1-15-5-4-12-4-15 1-41 48-63 109-63 173 0 146 115 264 256 264 141 0 256-118 256-264 0-64-22-126-63-174-2-2-5-4-8-4z"/>
<glyph unicode="&#57;" d="M300 120c-1 0-1 0-2 0l-55 11c-6 1-10 7-9 13 2 6 7 9 13 8l54-10 188 17-34 236-159 11-275-78 0-131 16-3c6-1 10-7 8-13-1-5-6-9-12-8l-24 5c-5 1-9 5-9 10l0 148c0 4 3 9 8 10l284 81c1 0 2 1 4 0l169-11c5-1 9-5 10-9l37-256c0-3 0-6-2-8-2-2-5-4-8-4l-201-19c0 0-1 0-1 0z m-121 24c-1 0-2 0-3 1l-91 18c-6 1-9 6-8 12 1 6 7 10 12 9l92-19c5-1 9-6 8-12-1-5-5-9-10-9z m128-16c-6 0-10 4-11 10l-15 268c0 6 4 11 10 11 6 1 11-4 11-10l16-268c0-6-5-11-10-11-1 0-1 0-1 0z m0 112c-6 0-10 4-11 10 0 6 5 11 10 11l179 8c6 1 11-4 11-10 0-6-4-11-10-11l-179-8c0 0 0 0 0 0z m43-68l-13 0c-6 0-11 4-11 10 0 6 5 11 11 11l13 0c6 0 11-5 11-11 0-6-5-10-11-10z m112 7l-13 0c-6 0-11 5-11 11 0 6 5 11 11 11l13 0c6 0 11-5 11-11 0-6-5-11-11-11z m-163-48c-3 0-6 2-8 5l-81 112-193 8c-6 0-10 5-10 11 0 6 5 11 11 10l198-8c4 0 7-1 9-4l83-117c3-4 2-11-3-15-1-1-4-2-6-2z m-252 132c-6 0-11 5-11 11l0 65c0 6 5 10 11 10 6 0 11-4 11-10l0-65c0-6-5-11-11-11z m70-7c-6 0-11 5-11 11l0 93c0 6 5 10 11 10 6 0 11-4 11-10l0-93c0-6-5-11-11-11z m93 0c-6 0-11 5-11 11l0 118c0 6 5 11 11 11 6 0 11-5 11-11l0-118c0-6-5-11-11-11z m-149-128c-21 0-37 22-37 51 0 29 16 51 37 51 21 0 37-22 37-51 0-29-16-51-37-51z m0 81c-7 0-15-13-15-30 0-17 8-30 15-30 8 0 16 13 16 30 0 17-8 30-16 30z m151-125c-25 0-45 28-45 63 0 35 20 62 45 62 24 0 44-27 44-62 0-35-20-63-44-63z m0 104c-11 0-23-17-23-41 0-24 12-41 23-41 10 0 22 17 22 41 0 24-12 41-22 41z"/>
<glyph unicode="&#33;" d="M486 73c-4 0-8 3-9 6l-108 223-139-177c-2-2-6-4-9-4-3 0-7 2-9 5l-73 107-104-155c-4-5-10-6-15-3-5 3-6 10-3 15l113 168c2 3 6 5 9 5 4 0 7-2 9-5l74-108 140 178c3 3 6 4 10 4 4 0 7-3 8-6l116-237c2-6 0-12-5-15-2 0-3-1-5-1z m-262 238c-36 0-64 29-64 64 0 35 28 64 64 64 35 0 64-29 64-64 0-35-29-64-64-64z m0 106c-24 0-43-19-43-42 0-24 19-43 43-43 23 0 42 19 42 43 0 23-19 42-42 42z m277-344l-490 0c-6 0-11 5-11 11 0 6 5 11 11 11l490 0c6 0 11-5 11-11 0-6-5-11-11-11z"/>
<glyph unicode="&#34;" d="M278 78l-47 0c-83 0-151 70-151 156l0 148c0 6 5 11 10 11l328 0c6 0 11-5 11-11l0-148c0-86-68-156-151-156z m-177 293l0-137c0-75 58-135 130-135l47 0c71 0 130 60 130 135l0 137z m359-156c-29 0-52 25-52 55l0 46c0 30 23 55 52 55 29 0 52-25 52-55l0-46c0-31-23-55-52-55z m0 135c-17 0-31-16-31-34l0-46c0-19 14-34 31-34 17 0 31 15 31 34l0 46c0 18-14 34-31 34z m-206-350c-123 0-254 31-254 90 0 32 39 58 111 75 6 1 11-3 13-8 1-6-2-12-8-13-58-13-95-35-95-54 0-33 96-69 233-69 138 0 233 36 233 69 0 19-37 41-94 54-6 1-10 7-8 13 1 5 7 9 13 8 71-17 111-43 111-75 0-59-131-90-255-90z m52 400c-6 0-10 5-10 11l0 56c0 6 4 11 10 11 6 0 11-5 11-11l0-56c0-6-5-11-11-11z m-52 0c-6 0-10 5-10 11l0 90c0 6 4 11 10 11 6 0 11-5 11-11l0-90c0-6-5-11-11-11z m-52 0c-6 0-10 5-10 11l0 56c0 6 4 11 10 11 6 0 11-5 11-11l0-56c0-6-5-11-11-11z"/>
<glyph unicode="&#35;" d="M315 238c-22 0-43 9-59 24-16-15-37-24-59-24-46 0-84 37-84 83 0 39 27 72 64 81-3 9-5 17-5 26 0 46 38 84 84 84 22 0 43-9 59-24 16-16 25-37 25-60 0-9-2-17-5-26 37-9 64-42 64-81 0-46-38-83-84-83z m-59 51c3 0 7-1 9-4 11-16 30-26 50-26 34 0 62 28 62 62 0 33-25 60-57 62-4 0-7 2-9 6-2 3-2 7 0 10 5 9 7 19 7 29 0 17-6 33-18 44-12 12-27 19-44 19-34 0-62-28-62-63 0-10 2-20 7-29 2-3 2-7 0-10-2-4-5-6-8-6-33-2-58-29-58-62 0-34 28-62 62-62 20 0 39 10 50 26 2 3 6 4 9 4z m0-289c-5 0-9 3-10 8l-69 238c-1 3 0 7 2 10 3 3 6 4 10 3 2 0 5 0 8 0 20 0 39 10 50 26 4 5 14 5 18 0 11-16 30-26 50-26 3 0 6 0 8 0 4 1 7 0 10-3 2-3 3-7 2-10l-69-238c-1-5-5-8-10-8z m-54 238l54-189 54 189c-20 1-40 10-54 24-14-14-34-23-54-24z"/>
<glyph unicode="&#36;" d="M453 85c-5 0-9 3-10 7-2 6 1 12 7 13 3 1 6 2 9 4 19 9 32 28 32 49l0 278c0 30-25 55-55 55l-360 0c-30 0-55-25-55-55l0-278c0-23 15-44 38-52 5-1 9-7 7-13-2-6-8-9-14-7-31 11-52 40-52 72l0 278c0 42 34 76 76 76l360 0c42 0 76-34 76-76l0-278c0-29-17-56-44-68-4-2-8-4-12-5-1 0-2 0-3 0z m-276 58c0 18-15 33-33 33-19 0-34-15-34-33 0-18 15-32 34-32 18 0 33 14 33 32z m224 0c0 18-14 33-33 33-18 0-33-15-33-33 0-18 15-32 33-32 19 0 33 14 33 32z m-113-10l-64 0c-6 0-10 4-10 10 0 6 4 11 10 11l64 0c6 0 10-5 10-11 0-6-4-10-10-10z m-169-133c-6 0-11 5-11 11l0 38c0 6 5 11 11 11 6 0 10-5 10-11l0-38c0-6-4-11-10-11z m274 0c-6 0-10 5-10 11l0 38c0 6 4 11 10 11 6 0 11-5 11-11l0-38c0-6-5-11-11-11z m1 49l-276 0c-34 0-61 31-61 68l0 267c0 38 27 69 61 69l276 0c34 0 61-31 61-69l0-267c0-37-27-68-61-68z m-276 382c-22 0-40-21-40-47l0-267c0-26 18-47 40-47l276 0c22 0 40 21 40 47l0 267c0 26-18 47-40 47z m317-216l-358 0c-6 0-11 5-11 11 0 6 5 10 11 10l358 0c6 0 11-4 11-10 0-6-5-11-11-11z m-179 0c-6 0-11 5-11 11l0 207c0 6 5 11 11 11 6 0 11-5 11-11l0-207c0-6-5-11-11-11z"/>
<glyph unicode="&#37;" d="M501 0l-490 0c-6 0-11 5-11 11l0 490c0 6 5 11 11 11l490 0c6 0 11-5 11-11l0-490c0-6-5-11-11-11z m-480 21l470 0 0 470-470 0z m298-21l-115 0c-5 0-10 5-10 11l0 92c0 6 5 11 10 11l115 0c6 0 11-5 11-11l0-92c0-6-5-11-11-11z m-104 21l94 0 0 72-94 0z m-108 275c-6 0-11 5-11 11l0 56c0 6 5 11 11 11 6 0 11-5 11-11l0-56c0-6-5-11-11-11z m99 0c-5 0-10 5-10 11l0 56c0 6 5 11 10 11 6 0 11-5 11-11l0-56c0-6-5-11-11-11z m100 0c-6 0-11 5-11 11l0 56c0 6 5 11 11 11 6 0 10-5 10-11l0-56c0-6-4-11-10-11z m99 0c-6 0-11 5-11 11l0 56c0 6 5 11 11 11 6 0 11-5 11-11l0-56c0-6-5-11-11-11z m-298-130c-6 0-11 4-11 10l0 57c0 6 5 10 11 10 6 0 11-4 11-10l0-57c0-6-5-10-11-10z m99 0c-5 0-10 4-10 10l0 57c0 6 5 10 10 10 6 0 11-4 11-10l0-57c0-6-5-10-11-10z m100 0c-6 0-11 4-11 10l0 57c0 6 5 10 11 10 6 0 10-4 10-10l0-57c0-6-4-10-10-10z m99 0c-6 0-11 4-11 10l0 57c0 6 5 10 11 10 6 0 11-4 11-10l0-57c0-6-5-10-11-10z m-298-120c-6 0-11 5-11 11l0 56c0 6 5 11 11 11 6 0 11-5 11-11l0-56c0-6-5-11-11-11z m298 0c-6 0-11 5-11 11l0 56c0 6 5 11 11 11 6 0 11-5 11-11l0-56c0-6-5-11-11-11z m-263 417l0-26 30 0 0 26 8 0 0-61-8 0 0 28-30 0 0-28-8 0 0 61z m104-30c0-21-13-32-29-32-16 0-27 12-27 31 0 19 12 32 28 32 17 0 28-13 28-31z m-48-1c0-13 7-25 20-25 12 0 19 12 19 26 0 12-6 24-19 24-13 0-20-12-20-25z m67 24l-18 0 0 7 45 0 0-7-19 0 0-54-8 0z m66-26l-24 0 0-22 26 0 0-6-34 0 0 61 33 0 0-7-25 0 0-19 24 0z m13 33l7 0 0-55 27 0 0-6-34 0z"/>
<glyph unicode="&#38;" d="M157 0c-4 0-7 2-9 5l-56 87-87 56c-4 2-6 7-5 11l12 63c1 5 5 9 11 9l106-5c-17 37-60 129-97 166-2 2-3 5-3 8 0 2 1 5 3 7l44 45c4 3 8 4 12 2 1-1 76-35 171-35 91 0 170 30 235 90 4 4 11 4 15 0 4-4 4-11 0-15-161-174-56-403-55-406 2-4 1-9-2-12l-45-44c-4-4-11-4-15 0-37 37-129 80-166 97l5-106c0-6-4-10-9-11l-63-12c-1 0-1 0-2 0z m-135 162l83-53c2-1 3-2 4-4l53-83 47 9-5 114c0 4 1 7 4 9 3 2 7 3 10 1 6-2 127-53 181-101l32 32c-14 37-75 207 17 362-56-33-119-50-189-50-84 0-151 24-173 33l-32-32c48-54 99-175 101-181 2-3 1-7-1-10-2-3-5-5-9-4l-114 5z m155 98c-3 0-5 1-8 3-4 4-4 11 0 15 76 80 90 134 90 135 1 5 7 9 13 8 5-2 9-7 7-13 0-3-14-60-94-144-3-2-5-4-8-4z m94-94c-3 0-6 1-8 3-4 5-4 11 1 15 84 81 142 95 144 95 6 2 11-2 13-8 1-5-3-11-8-12-1-1-55-14-135-90-2-2-4-3-7-3z"/>
<glyph unicode="&#39;" d="M323 0c-2 0-5 1-7 3l-85 85c-1 1-2 3-3 4l-31 104c-36 12-221 80-194 304 0 5 4 9 9 9 14 2 29 3 42 3 191 0 251-163 262-197l104-31c1-1 3-2 4-3l85-85c3-2 4-6 3-10-1-4-4-6-7-8l-130-41-41-130c-2-3-4-6-8-7-1 0-2 0-3 0z m-75 101l71-70 38 117c1 4 3 6 7 7l117 38-70 71-107 32c-4 1-7 4-7 8-2 8-48 187-243 187-10 0-20-1-31-2-21-222 176-271 185-273 4-1 7-4 8-8z m-120 272c-3 0-6 1-8 4l-33 33c-4 4-4 11 0 15 4 4 11 4 15 0l33-33c5-5 5-11 0-15-2-3-4-4-7-4z m81-81c-2 0-5 1-7 3l-33 33c-4 4-4 11 0 15 4 4 11 4 15 0l33-33c4-4 4-11 0-15-2-2-5-3-8-3z"/>
<glyph unicode="&#40;" d="M256 71c-87 0-158 70-158 157 0 39 15 77 41 106 30 33 72 52 117 52 87 0 158-71 158-158 0-87-71-157-158-157z m0 294c-39 0-75-17-101-46-23-25-35-57-35-91 0-75 61-136 136-136 75 0 136 61 136 136 0 75-61 137-136 137z m0-204c-37 0-67 30-67 67 0 17 6 33 17 45 13 14 31 23 50 23 37 0 67-31 67-68 0-37-30-67-67-67z m0 113c-13 0-25-5-34-15-8-8-12-19-12-31 0-25 21-46 46-46 25 0 46 21 46 46 0 26-21 46-46 46z m17-274l-186 0c-4 0-8 2-10 6-1 3-1 7 1 11l71 106c4 4 10 6 15 3 5-4 6-10 3-15l-60-90 166 0c6 0 11-4 11-10 0-6-5-11-11-11z m152 0l-186 0c-6 0-11 5-11 11 0 6 5 10 11 10l166 0-60 90c-3 5-2 11 3 15 5 3 11 2 15-3l71-106c2-4 2-8 1-11-2-4-6-6-10-6z m-284 316c-6 0-10 5-10 11l0 174c0 6 4 11 10 11 6 0 11-5 11-11l0-174c0-6-5-11-11-11z m230 0c-6 0-11 5-11 11l0 174c0 6 5 11 11 11 6 0 10-5 10-11l0-174c0-6-4-11-10-11z m62 175l-354 0c-6 0-11 4-11 10 0 6 5 11 11 11l354 0c6 0 11-5 11-11 0-6-5-10-11-10z m-177-126c-6 0-11 4-11 10l0 57c0 6 5 11 11 11 6 0 11-5 11-11l0-57c0-6-5-10-11-10z m-57-365c-1 0-2 0-3 1-6 1-9 7-7 13l20 62c2 6 8 9 14 7 5-2 8-8 7-13l-21-63c-1-4-5-7-10-7z m114 0c-5 0-9 3-10 7l-21 63c-1 5 2 11 7 13 6 2 12-1 14-7l20-62c2-6-1-12-7-14-1 0-2 0-3 0z"/>
<glyph unicode="&#41;" d="M358 0l-204 0c-35 0-64 29-64 64l0 384c0 35 29 64 64 64l204 0c35 0 64-29 64-64l0-384c0-35-29-64-64-64z m-204 491c-24 0-43-20-43-43l0-384c0-23 19-43 43-43l204 0c24 0 43 20 43 43l0 384c0 23-19 43-43 43z m182-407l-160 0c-21 0-38 17-38 39l0 284c0 21 17 39 38 39l160 0c21 0 38-18 38-39l0-284c0-22-17-39-38-39z m-160 340c-9 0-17-8-17-17l0-284c0-10 8-18 17-18l160 0c9 0 17 8 17 18l0 284c0 9-8 17-17 17z m91-382l-22 0c-6 0-11 4-11 10 0 6 5 11 11 11l22 0c6 0 11-5 11-11 0-6-5-10-11-10z"/>
<glyph unicode="&#42;" d="M448 157l-8 0c-6 0-11 4-11 10 0 6 5 11 11 11l8 0c23 0 43 19 43 43l0 23c0 24-20 43-43 43l-384 0c-23 0-43-19-43-43l0-23c0-24 20-43 43-43 6 0 11-5 11-11 0-6-5-10-11-10-35 0-64 29-64 64l0 23c0 36 29 65 64 65l384 0c35 0 64-29 64-65l0-23c0-35-29-64-64-64z m-134 0l-121 0c-6 0-11 4-11 10 0 6 5 11 11 11l121 0c6 0 11-5 11-11 0-6-5-10-11-10z m163 126c-3 0-7 1-9 5-47 74-101 103-190 103-83 0-142-89-143-90-3-4-10-6-14-3-5 4-7 10-4 15 3 4 66 99 161 99 97 0 157-33 208-113 3-5 2-12-3-15-2-1-4-1-6-1z m-202 12c-6 0-11 5-11 10l0 89c0 6 5 11 11 11 6 0 10-5 10-11l0-89c0-5-4-10-10-10z m-143-195c-40 0-72 32-72 72 0 39 32 71 72 71 39 0 71-32 71-71 0-40-32-72-71-72z m0 122c-28 0-51-23-51-50 0-28 23-51 51-51 27 0 50 23 50 51 0 27-23 50-50 50z m247-122c-40 0-72 32-72 72 0 39 32 71 72 71 40 0 72-32 72-71 0-40-32-72-72-72z m0 122c-28 0-50-23-50-50 0-28 22-51 50-51 28 0 50 23 50 51 0 27-22 50-50 50z"/>
<glyph unicode="&#43;" d="M313 114c-89 0-163 65-188 91-38-48-110-56-113-57-4 0-8 2-10 5-2 3-3 7-1 11l49 92-49 92c-2 4-1 8 1 11 2 3 6 5 10 5 3-1 75-9 113-57 25 26 98 91 188 91 73 0 137-44 192-130 3-1 4-3 6-5 1-2 1-5 1-7 0-2 0-5-1-7-2-2-3-4-6-5-55-86-119-130-192-130z m-190 119c3 0 6-2 8-4 1-1 83-94 182-94 65 0 124 41 175 121-51 80-110 121-175 121-99 0-181-93-182-94-2-3-5-4-9-4-3 1-6 3-8 6-19 33-59 47-84 53l41-77c2-3 2-7 0-10l-41-77c25 6 65 20 84 53 2 3 5 5 8 6 1 0 1 0 1 0z m274 23c0-13-10-23-23-23-13 0-23 10-23 23 0 13 10 23 23 23 13 0 23-10 23-23z m-85-99c-5 0-8 2-10 6-52 112-1 180 1 183 4 5 10 6 15 2 5-4 6-10 2-15-2-2-45-61 1-161 3-5 0-12-5-14-1-1-3-1-4-1z"/>
<glyph unicode="&#44;" d="M256 175c-93 0-169 75-169 168 0 93 76 169 169 169 93 0 169-76 169-169 0-93-76-168-169-168z m0 316c-81 0-147-66-147-148 0-81 66-147 147-147 81 0 147 66 147 147 0 82-66 148-147 148z m0-491c-6 0-11 5-11 11l0 162c0 6 5 11 11 11 6 0 11-5 11-11l0-162c0-6-5-11-11-11z m66 0l-132 0c-6 0-11 5-11 11 0 6 5 10 11 10l132 0c6 0 11-4 11-10 0-6-5-11-11-11z m-107 221c-6 0-11 5-11 11l0 89c0 0 0 0 0 0l0 114c0 6 5 11 11 11l68 0c22-1 62-15 62-63 0-53-38-72-64-72l-55 0 0-79c0-6-5-11-11-11z m11 204l0-93 55 1c2 0 43 0 43 50 0 40-40 41-42 42z"/>
<glyph unicode="&#45;" d="M449 27c-1 0-1 0-1 0l-384 0c-3 0-6 2-8 4-2 2-3 6-3 9l58 359c1 5 5 9 11 9l268 0c6 0 10-4 11-9l57-357c1-1 1-3 1-4 0-6-5-11-10-11z m-373 22l360 0-55 338-250 0z m425 296c-6 0-10 5-10 11l0 107-470 0 0-107c0-6-4-11-10-11-6 0-11 5-11 11l0 118c0 6 5 11 11 11l490 0c6 0 11-5 11-11l0-118c0-6-5-11-11-11z m-161-88l-20 0c0-11-4-24-9-31l-14 5c5 7 9 18 9 29 0 15-8 24-20 24-11 0-18-8-24-23-8-20-17-33-34-33-17 0-30 12-33 31l-20 0 0 12 19 0c1 12 4 20 7 26l14-5c-3-4-7-12-7-25 0-16 9-21 17-21 11 0 16 7 23 24 9 21 19 32 37 32 16 0 31-11 34-32l21 0 0-13z m-62-129c0-12-10-22-22-22-12 0-22 10-22 22 0 13 10 22 22 22 12 0 22-9 22-22z"/>
<glyph unicode="&#46;" d="M454 52l-7 0c-6 0-11 5-11 11 0 6 5 10 11 10l7 0c20 0 37 18 37 39l0 21c0 22-17 39-37 39l-341 0c-20 0-37-17-37-39l0-21c0-21 17-39 37-39 6 0 11-4 11-10 0-6-5-11-11-11-32 0-58 27-58 60l0 21c0 33 26 60 58 60l341 0c32 0 58-27 58-60l0-21c0-33-26-60-58-60z m-119 0l-108 0c-6 0-10 5-10 11 0 6 4 10 10 10l108 0c6 0 11-4 11-10 0-6-5-11-11-11z m145 115c-4 0-7 2-9 6-31 49-64 76-109 87-17 5-36 7-59 7-73 0-125-81-126-82-3-5-9-6-14-3-5 3-7 10-4 15 3 3 59 91 144 91 25 0 46-2 65-7 50-13 87-43 121-97 3-5 1-12-4-15-1-1-3-2-5-2z m-180 12c-6 0-11 4-11 10l0 81c0 6 5 11 11 11 6 0 11-5 11-11l0-81c0-6-5-10-11-10z m-127-179c-36 0-65 30-65 67 0 36 29 66 65 66 36 0 65-30 65-66 0-37-29-67-65-67z m0 112c-24 0-43-20-43-45 0-25 19-46 43-46 24 0 44 21 44 46 0 25-20 45-44 45z m220-112c-36 0-65 30-65 67 0 36 29 66 65 66 35 0 65-30 65-66 0-37-30-67-65-67z m0 112c-24 0-44-20-44-45 0-25 20-46 44-46 24 0 43 21 43 46 0 25-19 45-43 45z m-314 49c-2 0-5 1-7 3-46 37-72 93-72 153 0 107 85 195 189 195 105 0 190-88 190-195 0-14-2-29-5-43-1-5-7-9-12-8-6 2-10 7-9 13 3 12 4 25 4 38 0 96-75 174-168 174-92 0-168-78-168-174 0-54 24-104 65-137 4-4 5-10 1-15-2-2-5-4-8-4z m39 16c-4 0-8 2-9 6-20 36-30 84-30 134 0 109 48 195 110 195 62 0 111-86 111-195 0-12-1-24-2-36 0-6-6-10-12-9-5 0-10 6-9 11 1 11 2 23 2 34 0 94-41 174-90 174-48 0-89-80-89-174 0-47 10-91 27-124 3-5 1-12-4-15-2 0-3-1-5-1z m242 129l-341 0c-6 0-11 5-11 11 0 6 5 11 11 11l341 0c6 0 11-5 11-11 0-6-5-11-11-11z m-12 85l-318 0c-5 0-10 4-10 10 0 6 5 11 10 11l318 0c6 0 11-5 11-11 0-6-5-10-11-10z m-147-164l-171 0c-5 0-10 5-10 11 0 5 5 10 10 10l171 0c6 0 11-5 11-10 0-6-5-11-11-11z m-12-17c-6 0-10 5-10 10l0 273c0 6 4 11 10 11 6 0 11-5 11-11l0-273c0-5-5-10-11-10z"/>
<glyph unicode="&#47;" d="M424 73c-6 0-11 5-11 11l0 134-323 0 0-134c0-6-5-11-11-11-6 0-11 5-11 11l0 145c0 6 5 11 11 11l345 0c6 0 10-5 10-11l0-145c0-6-4-11-10-11z m-72 145c-6 0-11 5-11 11l0 90-180 0 0-90c0-6-4-11-10-11-6 0-11 5-11 11l0 101c0 6 5 11 11 11l201 0c6 0 11-5 11-11l0-101c0-6-5-11-11-11z m-27 103c-6 0-11 5-11 11l0 78-64 75-62-75 0-78c0-6-4-11-10-11-6 0-11 5-11 11l0 82c0 3 1 5 2 7l72 87c2 3 5 4 8 4 4 0 7-1 9-4l75-87c2-2 3-4 3-7l0-82c0-6-5-11-11-11z m0-259c-6 0-11 4-11 10l0 51-64 51-62-50 0-52c0-6-4-10-10-10-6 0-11 4-11 10l0 57c0 3 1 6 4 8l72 59c4 3 9 4 13 0l76-59c2-2 4-5 4-8l0-57c0-6-5-10-11-10z m176-62c-2 0-4 1-6 2l-75 60-337 0-65-59c-5-4-11-4-15 1-4 4-4 11 1 15l68 61c2 2 4 3 7 3l345 0c2 0 5-1 6-2l78-62c5-4 5-10 2-15-2-3-6-4-9-4z m-323 406l-49 0c-6 0-10 5-10 10 0 6 4 11 10 11l49 0c6 0 10-5 10-11 0-5-4-10-10-10z m-26-87l-48 0c-6 0-11 5-11 11 0 6 5 11 11 11l48 0c6 0 11-5 11-11 0-6-5-11-11-11z m247 0l-48 0c-6 0-11 5-11 11 0 6 5 11 11 11l48 0c6 0 11-5 11-11 0-6-5-11-11-11z m-25 87l-49 0c-6 0-11 5-11 10 0 6 5 11 11 11l49 0c5 0 10-5 10-11 0-5-5-10-10-10z m-295-188l-60 0c-6 0-10 5-10 11 0 6 4 11 10 11l60 0c6 0 11-5 11-11 0-6-5-11-11-11z m404 0l-59 0c-6 0-11 5-11 11 0 6 5 11 11 11l59 0c6 0 11-5 11-11 0-6-5-11-11-11z"/>
<glyph unicode="&#58;" d="M174 0c-1 0-3 0-4 1l-164 77c-4 2-6 6-6 10l0 413c0 4 2 7 5 9 3 2 7 3 10 1l164-77c4-2 6-6 6-10l0-413c0-4-2-7-5-9-2-1-4-2-6-2z m-153 95l143-68 0 390-143 67z m153-95c-2 0-4 1-5 2-4 2-5 5-5 9l0 413c0 4 2 8 6 10l163 77c4 2 7 1 11-1 3-2 4-5 4-9l0-413c0-4-2-8-6-10l-163-77c-2-1-3-1-5-1z m11 417l0-389 142 67 0 389z m316-417c-1 0-3 0-4 1l-164 77c-4 2-6 6-6 10l0 413c0 4 2 7 5 9 3 2 7 3 10 1l164-77c4-2 6-6 6-10l0-413c0-4-2-7-5-9-2-1-4-2-6-2z m-153 95l143-67 0 389-143 67z"/>
<glyph unicode="&#59;" d="M151 0l-87 0c-35 0-64 31-64 69 0 37 29 68 64 68l56 0 199 260c13 16 31 26 50 26l79 0c35 0 64-31 64-69 0-38-29-69-64-69l-48 0-200-260c-12-16-30-25-49-25z m-87 116c-23 0-43-21-43-47 0-26 20-48 43-48l87 0c12 0 24 6 32 17l206 269 59 0c23 0 43 21 43 47 0 26-20 47-43 47l-79 0c-12 0-24-6-33-16l-205-269z m132 297c-25 0-46 22-46 50 0 27 21 49 46 49 26 0 47-22 47-49 0-28-21-50-47-50z m0 78c-13 0-25-13-25-28 0-16 12-28 25-28 14 0 25 12 25 28 0 15-11 28-25 28z m-38-325c-3 0-6 2-8 4-11 13-16 29-16 46l0 115c0 38 28 68 62 68 35 0 63-30 63-68l0-44c0-6-5-11-11-11-6 0-10 5-10 11l0 44c0 26-19 47-42 47-22 0-41-21-41-47l0-115c0-12 4-23 11-32 4-5 3-11-1-15-2-2-5-3-7-3z m265-166c-3 0-5 1-7 3l-79 85c-2 3-3 8-1 11 1 4 5 7 9 7l29 0 0 105c0 6 5 11 10 11l78 0c6 0 11-5 11-11l0-105 28 0c5 0 8-3 10-7 2-4 1-8-2-11l-78-85c-2-2-5-3-8-3z m-53 84l53-58 54 58-15 0c-6 0-11 5-11 11l0 106-56 0 0-106c0-6-5-11-11-11z"/>
<glyph unicode="&#60;" d="M327 0l-142 0c-6 0-11 5-11 11l0 266c0 6 5 11 11 11l142 0c6 0 11-5 11-11l0-266c0-6-5-11-11-11z m-132 21l122 0 0 246-122 0z m192-21l-262 0c-6 0-11 5-11 11 0 6 5 10 11 10l262 0c6 0 11-4 11-10 0-6-5-11-11-11z m-130 267l-95 0c-4 0-8 2-10 6l-51 111c-1 3-1 7 1 10 2 3 5 5 9 5l146 0c6 0 10-5 10-11l0-111c0-5-4-10-10-10z m-88 21l77 0 0 90-118 0z m181-21l-95 0c-6 0-10 5-10 10l0 111c0 6 4 11 10 11l146 0c4 0 7-2 9-5 2-3 2-7 1-10l-51-111c-2-4-6-6-10-6z m-84 21l77 0 42 90-119 0z m42 203l-104 0c-6 0-11 4-11 10 0 6 5 11 11 11l104 0c6 0 11-5 11-11 0-6-5-10-11-10z m-52-108c-6 0-11 5-11 11l0 100c0 6 5 10 11 10 6 0 11-4 11-10l0-100c0-6-5-11-11-11z"/>
<glyph unicode="&#61;" d="M256 175c-93 0-169 75-169 168 0 93 76 169 169 169 93 0 169-76 169-169 0-93-76-168-169-168z m0 316c-81 0-147-66-147-148 0-81 66-147 147-147 81 0 147 66 147 147 0 82-66 148-147 148z m0-491c-6 0-11 5-11 11l0 162c0 6 5 11 11 11 6 0 11-5 11-11l0-162c0-6-5-11-11-11z m66 0l-132 0c-6 0-11 5-11 11 0 6 5 10 11 10l132 0c6 0 11-4 11-10 0-6-5-11-11-11z m-116 221c-6 0-10 5-10 11l0 89c0 0 0 0 0 0l0 114c0 6 4 11 10 11l68 0c22-1 63-15 63-63 0-53-39-72-64-72l-56 0 0-79c0-6-5-11-11-11z m11 204l0-93 56 1c1 0 42 0 42 50 0 39-37 41-41 42z m-73-204c-2 0-5 1-7 3-4 4-4 11 0 15l223 224c4 4 11 4 15 0 4-5 4-11 0-16l-223-223c-2-2-5-3-8-3z"/>
<glyph unicode="&#62;" d="M256 69c-94 0-171 86-171 191 0 105 77 191 171 191 94 0 171-86 171-191 0-105-77-191-171-191z m0 361c-82 0-149-76-149-170 0-94 67-170 149-170 82 0 149 76 149 170 0 94-67 170-149 170z m141-244l-291 0c-6 0-10 5-10 11 0 5 4 10 10 10l291 0c6 0 11-5 11-10 0-6-5-11-11-11z m-145 0c-6 0-11 5-11 11l0 304c0 6 5 11 11 11 6 0 10-5 10-11l0-304c0-6-4-11-10-11z m-139-186l-39 0c-4 0-7 2-9 6-2 3-2 7 0 11l78 114c3 5 10 6 15 3 5-3 6-10 3-15l-67-98 19 0c6 0 11-4 11-10 0-6-5-11-11-11z m325 0l-39 0c-6 0-11 5-11 11 0 6 5 10 11 10l19 0-67 98c-3 5-2 12 3 15 5 3 12 2 15-3l78-114c2-4 2-8 0-11-2-4-5-6-9-6z m63 480l-490 0c-6 0-11 5-11 11 0 6 5 11 11 11l490 0c6 0 11-5 11-11 0-6-5-11-11-11z"/>
<glyph unicode="&#63;" d="M464 133l-36 0c-6 0-11 5-11 11 0 5 5 10 11 10l36 0c15 0 27 13 27 28 0 16-18 50-44 72l-134 116c-24 20-71 38-103 38l-137 0c-28 0-52-24-52-52l0-150c0-32 10-51 15-52l24 0c6 0 11-5 11-10 0-6-5-11-11-11l-24 0c-24 0-36 37-36 73l0 150c0 40 33 73 73 73l137 0c37 0 89-19 117-43l134-116c29-25 51-63 51-88 0-27-21-49-48-49z m-158 0l-139 0c-5 0-10 5-10 11 0 5 5 10 10 10l139 0c6 0 10-5 10-10 0-6-4-11-10-11z m-190-50c-33 0-60 27-60 60 0 33 27 60 60 60 33 0 60-27 60-60 0-33-27-60-60-60z m0 99c-22 0-39-18-39-39 0-21 17-39 39-39 21 0 38 18 38 39 0 21-17 39-38 39z m250-99c-33 0-60 27-60 60 0 33 27 60 60 60 33 0 60-27 60-60 0-33-27-60-60-60z m0 99c-21 0-38-18-38-39 0-21 17-39 38-39 22 0 39 18 39 39 0 21-17 39-39 39z m88 67l-435 0c-6 0-11 5-11 11 0 6 5 11 11 11l435 0c6 0 11-5 11-11 0-6-5-11-11-11z"/>
<glyph unicode="&#64;" d="M412 105c-55 0-99 45-99 100 0 55 44 100 99 100 55 0 100-45 100-100 0-55-45-100-100-100z m0 178c-43 0-78-35-78-78 0-43 35-78 78-78 44 0 79 35 79 78 0 43-35 78-79 78z m-312-178c-55 0-100 45-100 100 0 55 45 100 100 100 55 0 99-45 99-100 0-55-44-100-99-100z m0 178c-44 0-79-35-79-78 0-43 35-78 79-78 43 0 78 35 78 78 0 43-35 78-78 78z m0-89c-2 0-3 1-4 1-6 2-8 9-6 14l81 191c1 4 5 7 10 7l42 0c6 0 11-5 11-11 0-6-5-11-11-11l-35 0-78-184c-2-4-6-7-10-7z m167-21c-4 0-7 2-9 5l-105 152c-3 3-3 8-1 11 2 4 5 6 9 6l162 0c4 0 7-2 9-5l89-127c2-3 3-6 1-10-1-3-4-6-8-6l-145-25c-1 0-2-1-2-1z m-85 152l90-129 122 21-76 108z m83-149c-1 0-3 0-4 1-6 2-8 8-6 14l82 203c2 6 9 8 14 6 6-2 8-8 6-14l-82-203c-2-4-6-7-10-7z m109 204l-57 0c-6 0-11 4-11 10 0 6 5 11 11 11l57 0c6 0 11-5 11-11 0-6-5-10-11-10z m-213-16l-37 0c-5 0-10 5-10 11 0 6 5 10 10 10l37 0c6 0 11-4 11-10 0-6-5-11-11-11z"/>
<glyph unicode="&#91;" d="M75 0c-6 0-11 5-11 11l0 304c0 6 5 10 11 10 6 0 10-4 10-10l0-304c0-6-4-11-10-11z m-64 366c-6 0-11 5-11 11l0 124c0 6 5 11 11 11 6 0 10-5 10-11l0-124c0-6-4-11-10-11z m64 0c-6 0-11 5-11 11l0 124c0 6 5 11 11 11 6 0 10-5 10-11l0-124c0-6-4-11-10-11z m64 0c-6 0-11 5-11 11l0 124c0 6 5 11 11 11 5 0 10-5 10-11l0-124c0-6-5-11-10-11z m-64-62c-42 0-75 33-75 73 0 5 5 10 11 10 6 0 10-5 10-10 0-29 24-52 54-52 29 0 53 23 53 52 0 5 5 10 11 10 5 0 10-5 10-10 0-40-33-73-74-73z m212-304c-6 0-11 5-11 11l0 304c0 6 5 10 11 10 6 0 11-4 11-10l0-304c0-6-5-11-11-11z m-64 366c-6 0-11 5-11 11l0 67c0 6 5 11 11 11 6 0 11-5 11-11l0-67c0-6-5-11-11-11z m128 0c-6 0-11 5-11 11l0 67c0 6 5 11 11 11 6 0 11-5 11-11l0-67c0-6-5-11-11-11z m-64-62c-41 0-75 33-75 73 0 5 5 10 11 10 6 0 11-5 11-10 0-29 24-52 53-52 29 0 53 23 53 52 0 5 5 10 11 10 6 0 11-5 11-10 0-40-34-73-75-73z m64 125c-6 0-11 5-11 11 0 28-24 51-53 51-29 0-53-23-53-51 0-6-5-11-11-11-6 0-11 5-11 11 0 39 34 72 75 72 41 0 74-33 74-72 1-6-4-11-10-11z m150-429l-62 0c-3 0-6 1-8 4-2 2-3 5-3 8l14 135c-9 2-21 7-29 18-10 13-12 31-6 52 3 14 7 39 11 68 15 115 32 212 80 227 3 1 7 0 10-2 2-2 4-5 4-9l0-490c0-6-5-11-11-11z m-50 21l40 0 0 461c-30-33-44-135-52-199-4-31-8-57-12-72-4-14-3-25 3-33 8-11 24-12 24-12 3 0 6-1 8-3 1-3 2-5 2-8z"/>
<glyph unicode="&#93;" d="M256 398c-31 0-57 25-57 57 0 31 26 57 57 57 32 0 57-26 57-57 0-32-25-57-57-57z m0 93c-20 0-36-16-36-36 0-20 16-36 36-36 20 0 36 16 36 36 0 20-16 36-36 36z m98-254c-6 0-11 5-11 11 0 65-39 117-87 117-48 0-87-52-87-117 0-6-5-11-11-11-6 0-10 5-10 11 0 76 48 138 108 138 60 0 108-62 108-138 0-6-4-11-10-11z m120 0l-436 0c-6 0-11 5-11 11 0 6 5 11 11 11l436 0c6 0 11-5 11-11 0-6-5-11-11-11z m-76-237l-284 0c-6 0-10 5-10 11l0 237c0 6 4 11 10 11l284 0c6 0 10-5 10-11l0-237c0-6-4-11-10-11z m-273 21l262 0 0 216-262 0z m-21 222c-6 0-10 4-11 10 0 2-5 71 52 106 5 3 12 2 15-3 3-5 1-12-4-15-45-28-42-84-41-87 0-6-4-11-10-11-1 0-1 0-1 0z m147-201c-46 0-84 38-84 84 0 46 38 84 84 84 47 0 84-38 84-84 0-46-37-84-84-84z m0 147c-34 0-62-28-62-63 0-35 28-63 62-63 35 0 63 28 63 63 0 35-28 63-63 63z m0-147c-25 0-44 36-44 84 0 48 19 84 44 84 25 0 44-36 44-84 0-48-19-84-44-84z m0 147c-9 0-23-25-23-63 0-38 14-63 23-63 9 0 23 25 23 63 0 38-14 63-23 63z m71-74l-142 0c-6 0-10 5-10 11 0 6 4 11 10 11l142 0c6 0 11-5 11-11 0-6-5-11-11-11z"/>
<glyph unicode="&#94;" d="M315 0c-4 0-8 2-10 6l-106 234c-2 5 0 11 5 14 6 2 12 0 14-5l107-234c2-5 0-12-5-14-2-1-3-1-5-1z m-176 259c-4 0-8 2-10 6l-43 96c-3 5 0 12 5 14 5 3 12 0 14-5l44-96c2-5 0-11-5-14-2-1-3-1-5-1z m48 22c-4 0-8 2-10 6l-43 96c-3 5 0 12 5 14 5 3 12 0 14-5l44-96c2-5 0-12-5-14-2-1-3-1-5-1z m48 22c-4 0-8 2-10 6l-43 96c-3 5 0 11 5 14 5 2 12 0 14-5l44-96c2-6 0-12-6-14-1-1-3-1-4-1z m-48-74c-8 0-15 1-22 4-16 5-29 17-36 32-2 6 0 12 6 14 5 3 11 1 14-5 4-10 13-18 23-21 11-4 22-4 32 1 21 9 31 34 21 55-2 5 0 12 6 14 5 3 11 0 14-5 14-32 0-69-32-84-8-3-17-5-26-5z m27-221c-2 0-3 1-5 1-5 3-7 9-5 15l107 233c2 5 8 8 14 5 5-2 7-8 5-14l-106-233c-2-4-6-7-10-7z m176 260c-2 0-3 0-5 1-5 2-7 8-5 14l24 52c2 5 9 7 14 5 5-3 8-9 5-14l-23-52c-2-4-6-6-10-6z m-96 43c-1 0-3 1-4 1-6 3-8 9-6 14l24 52c2 6 9 8 14 6 5-3 8-9 5-15l-23-51c-2-4-6-7-10-7z m48-74c-9 0-18 2-26 6-16 7-27 19-33 35-6 16-6 33 1 48 3 6 9 8 14 6 6-3 8-9 6-14-5-11-5-22-1-32 4-11 11-19 22-24 21-9 46 0 55 21 3 5 9 7 14 5 6-2 8-9 6-14-11-23-34-37-58-37z m70 79c-2 0-3 0-5 1-5 2-7 9-5 14 10 21 0 46-21 55-21 10-46 1-55-20-3-5-9-8-14-5-6 2-8 8-6 14 15 31 52 45 84 31 32-15 46-52 32-84-2-4-6-6-10-6z m-156-279c-131 0-238 106-238 237 0 131 107 238 238 238 131 0 238-107 238-238 0-131-107-237-238-237z m0 454c-119 0-216-97-216-217 0-119 97-216 216-216 119 0 216 97 216 216 0 120-97 217-216 217z"/>
<glyph unicode="&#95;" d="M466 206l-238 0c-5 0-9 3-10 8l-35 108c-1 4-1 7 1 10 2 3 6 4 9 4l308 0c4 0 7-1 9-4 2-3 3-6 2-10l-36-108c-1-5-5-8-10-8z m-230 22l223 0 28 87-279 0z m193 87l-163 0c-5 0-10 4-11 8l-24 109c0 3 0 7 2 9 2 3 5 4 9 4l211 0c3 0 6-1 8-4 2-2 3-6 2-9l-24-109c-1-4-5-8-10-8z m-155 21l146 0 19 88-184 0z m159-336l-171 0c-6 0-11 5-11 11l0 206c0 6 5 11 11 11l171 0c5 0 10-5 10-11l0-206c0-6-5-11-10-11z m-161 21l150 0 0 185-150 0z m119 470l-88 0c-6 0-11 4-11 10 0 6 5 11 11 11l88 0c6 0 11-5 11-11 0-6-5-10-11-10z m-44-60c-6 0-10 5-10 11l0 52c0 5 4 10 10 10 6 0 11-5 11-10l0-52c0-6-5-11-11-11z m-80-321c-86 0-253 60-260 63-6 2-8 8-6 13 2 6 8 9 13 7 2-1 166-60 249-62l31 32c4 4 11 4 15 0 4-4 4-11 0-15l-34-35c-2-2-5-3-8-3z m-89-53c-2 0-5 1-7 2l-86 82c-4 4-4 11 0 15 4 5 11 5 15 1l86-82c4-4 4-11 0-15-2-2-5-3-8-3z m-88 97c-5 0-10 4-10 9-1 6 3 11 9 12l106 15c6 0 12-4 12-9 1-6-3-12-9-12l-106-15c-1 0-1 0-2 0z m257 57c-6 0-10 5-10 11l0 96c0 6 4 10 10 10 6 0 11-4 11-10l0-96c0-6-5-11-11-11z"/>
<glyph unicode="&#96;" d="M48 98c-6 0-10 4-10 10l0 183c0 6 4 11 10 11 6 0 11-5 11-11l0-183c0-6-5-10-11-10z m-37 220c-6 0-11 5-11 11l0 75c0 6 5 10 11 10 6 0 10-4 10-10l0-75c0-6-4-11-10-11z m37 0c-6 0-10 5-10 11l0 75c0 6 4 10 10 10 6 0 11-4 11-10l0-75c0-6-5-11-11-11z m38 0c-6 0-11 5-11 11l0 75c0 6 5 10 11 10 6 0 11-4 11-10l0-75c0-6-5-11-11-11z m-38-37c-26 0-48 21-48 48 0 6 5 10 11 10 6 0 10-4 10-10 0-15 12-27 27-27 15 0 27 12 27 27 0 6 5 10 11 10 6 0 11-4 11-10 0-27-22-48-49-48z m214-183c-87 0-158 71-158 158 0 87 71 158 158 158 88 0 159-71 159-158 0-87-71-158-159-158z m0 295c-75 0-137-61-137-137 0-76 62-137 137-137 76 0 137 61 137 137 0 76-61 137-137 137z m0-235c-54 0-98 44-98 98 0 54 44 98 98 98 54 0 98-44 98-98 0-54-44-98-98-98z m0 174c-42 0-76-34-76-76 0-42 34-76 76-76 42 0 77 34 77 76 0 42-35 76-77 76z m239-234l-36 0c-3 0-6 1-8 3-2 2-3 5-3 8l8 78c-6 2-12 5-16 12-7 8-8 20-5 34 3 8 5 24 7 41 9 71 19 130 50 140 3 1 7 0 10-2 2-2 4-5 4-8l0-296c0-6-5-10-11-10z m-25 21l15 0 0 257c-12-26-18-77-22-104-2-19-4-35-7-44-1-5-2-12 1-17 3-4 11-5 11-5 3 0 5-1 7-3 2-3 3-6 3-8z"/>
<glyph unicode="&#123;" d="M501 121l-49 0c-6 0-11 5-11 11 0 6 5 10 11 10l49 0c6 0 11-4 11-10 0-6-5-11-11-11z m-167 0l-147 0c-6 0-11 5-11 11 0 6 5 10 11 10l147 0c6 0 11-4 11-10 0-6-5-11-11-11z m-269 0l-65 0 0 104c0 2 5 184 174 184 6 0 10-5 10-11 0-6-4-11-10-11-148 0-153-156-153-162l0-83 44 0c6 0 11-4 11-10 0-6-5-11-11-11z m436 0c-6 0-10 5-10 11l0 294-294 0 0-294c0-6-5-11-10-11-6 0-11 5-11 11l0 304c0 6 5 11 11 11l314 0c6 0 11-5 11-11l0-304c0-6-5-11-11-11z m-109-56c-36 0-64 29-64 64 0 36 28 64 64 64 35 0 64-28 64-64 0-35-29-64-64-64z m0 107c-24 0-43-19-43-43 0-23 19-43 43-43 23 0 43 20 43 43 0 24-20 43-43 43z m-272-107c-35 0-64 29-64 64 0 36 29 64 64 64 36 0 64-28 64-64 0-35-28-64-64-64z m0 107c-23 0-43-19-43-43 0-23 20-43 43-43 24 0 43 20 43 43 0 24-19 43-43 43z m283 124l-113 0c-6 0-11 4-11 10 0 6 5 11 11 11l113 0c6 0 11-5 11-11 0-6-5-10-11-10z m-57-57c-5 0-10 5-10 11l0 113c0 6 5 11 10 11 6 0 11-5 11-11l0-113c0-6-5-11-11-11z"/>
<glyph unicode="&#124;" d="M407 0l-302 0c-37 0-68 31-68 68l0 376c0 37 31 68 68 68l302 0c37 0 68-31 68-68l0-376c0-37-31-68-68-68z m-302 491c-26 0-47-21-47-47l0-376c0-26 21-47 47-47l302 0c26 0 47 21 47 47l0 376c0 26-21 47-47 47z m151-203c-66 0-120 67-120 150 0 6 4 11 10 11 6 0 11-5 11-11 0-71 44-129 99-129 55 0 99 58 99 129 0 6 5 11 11 11 6 0 10-5 10-11 0-83-54-150-120-150z"/>
<glyph unicode="&#125;" d="M367 46l-222 0c-34 0-62 27-62 61l0 344c0 34 28 61 62 61l222 0c34 0 62-27 62-61l0-344c0-34-28-61-62-61z m-222 445c-22 0-40-18-40-40l0-344c0-22 18-39 40-39l222 0c22 0 40 17 40 39l0 344c0 22-18 40-40 40z m212-223l-202 0c-6 0-11 5-11 11l0 164c0 6 5 11 11 11l202 0c6 0 11-5 11-11l0-164c0-6-5-11-11-11z m-191 22l180 0 0 142-180 0z m295-136l-37 0c-6 0-11 5-11 11 0 6 5 11 11 11l32 0c14 20 67 106 7 178-4 5-3 12 1 15 5 4 11 3 15-1 78-94-9-208-9-209-2-3-6-5-9-5z m9 199c-6 0-11 5-11 11-1 32-32 37-33 38-6 1-10 6-9 12 1 6 7 10 13 9 16-3 49-19 51-59 0-5-5-10-11-11 0 0 0 0 0 0z m-28-3c-1 0-2 1-2 1-6 1-10 6-9 12 3 18 16 27 24 30 5 1 11-2 13-7 2-6-1-12-7-14 0 0-7-3-9-13-1-5-5-9-10-9z m59-350l-490 0c-6 0-11 5-11 11 0 6 5 10 11 10l490 0c6 0 11-4 11-10 0-6-5-11-11-11z"/>
<glyph unicode="&#126;" d="M374 102c-32 0-58 26-58 58 0 32 26 58 58 58 32 0 58-26 58-58 0-32-26-58-58-58z m0 94c-20 0-37-16-37-36 0-20 17-37 37-37 20 0 37 17 37 37 0 20-17 36-37 36z m-218-94c-32 0-58 26-58 58 0 32 26 58 58 58 32 0 58-26 58-58 0-32-26-58-58-58z m0 94c-20 0-37-16-37-36 0-20 17-37 37-37 20 0 37 17 37 37 0 20-17 36-37 36z m171-41l-124 0c-6 0-11 5-11 11 0 6 5 11 11 11l124 0c6 0 11-5 11-11 0-6-5-11-11-11z m121 0l-27 0c-6 0-10 5-10 11 0 6 4 11 10 11l27 0c24 0 43 19 43 42l0 32c0 23-19 42-43 42l-371 0c-25 0-49-54-56-75 1-23 20-41 43-41l45 0c6 0 11-5 11-11 0-6-5-11-11-11l-45 0c-35 0-64 29-64 64 0 1 0 2 0 3 3 10 31 93 77 93l371 0c35 0 64-29 64-64l0-32c0-35-29-64-64-64z m-317 143c-2 0-3 0-5 1-5 3-7 10-4 15l53 91c3 5 9 7 14 4 6-3 7-10 4-15l-53-91c-2-3-5-5-9-5z m196 0c-2 0-3 0-4 1-6 2-8 8-6 14l18 40c3 5 9 7 14 5 6-3 8-9 6-14l-18-40c-2-4-6-6-10-6z"/>
<glyph unicode="&#92;" d="M371 192l-360 0c-6 0-11 5-11 11l0 209c0 5 5 10 11 10l360 0c6 0 11-5 11-10l0-209c0-6-5-11-11-11z m-350 21l339 0 0 188-339 0z m480-76l-41 0c-6 0-10 5-10 10 0 6 4 11 10 11l31 0c-3 107-40 164-51 178l-61 0c-6 0-10 5-10 11 0 6 4 11 10 11l66 0c3 0 6-2 8-4 2-3 59-67 59-207 0-5-5-10-11-10z m-122 0l-175 0c-6 0-10 5-10 10 0 6 4 11 10 11l175 0c6 0 11-5 11-11 0-5-5-10-11-10z m-263 0l-56 0c-6 0-11 5-11 10l0 50c0 6 5 10 11 10 6 0 11-4 11-10l0-39 45 0c6 0 11-5 11-11 0-5-5-10-11-10z m301-47c-27 0-48 21-48 48 0 27 21 48 48 48 26 0 48-21 48-48 0-27-22-48-48-48z m0 75c-15 0-27-12-27-27 0-15 12-27 27-27 15 0 27 12 27 27 0 15-12 27-27 27z m-257-75c-27 0-48 21-48 48 0 27 21 48 48 48 27 0 48-21 48-48 0-27-21-48-48-48z m0 75c-15 0-27-12-27-27 0-15 12-27 27-27 15 0 27 12 27 27 0 15-12 27-27 27z m312 93l-93 0c-6 0-10 4-10 10 0 6 4 11 10 11l93 0c6 0 11-5 11-11 0-6-5-10-11-10z"/>
<glyph unicode="&#57344;" d="M346 75l-180 0c-30 0-55 25-55 56l0 259c0 30 25 55 55 55l180 0c30 0 55-25 55-55l0-259c0-31-25-56-55-56z m-180 349c-19 0-34-15-34-34l0-259c0-19 15-34 34-34l180 0c19 0 34 15 34 34l0 259c0 19-15 34-34 34z m307-349l-434 0c-5 0-10 5-10 11 0 6 5 11 10 11l434 0c5 0 10-5 10-11 0-6-5-11-10-11z m-14-37c0-15-12-27-27-27-15 0-27 12-27 27 0 15 12 27 27 27 15 0 27-12 27-27z m-176 0c0-15-12-27-27-27-15 0-27 12-27 27 0 15 12 27 27 27 15 0 27-12 27-27z m-176 0c0-15-12-27-27-27-15 0-27 12-27 27 0 15 12 27 27 27 15 0 27-12 27-27z m222 167c-6 0-10 5-10 10l0 72-126 0 0-72c0-5-4-10-10-10-6 0-11 5-11 10l0 83c0 6 5 11 11 11l146 0c6 0 11-5 11-11l0-83c0-5-5-10-11-10z m-6 219c-6 0-11 5-11 10 0 31-25 57-56 57-31 0-56-26-56-57 0-5-5-10-11-10-6 0-11 5-11 10 0 43 35 78 78 78 43 0 78-35 78-78 0-5-5-10-11-10z"/>
<glyph unicode="&#57345;" d="M200 330c-49 0-89 52-89 115 0 5 5 10 11 10 6 0 11-5 11-10 0-52 30-93 67-93 37 0 67 41 67 93 0 5 5 10 11 10 6 0 10-5 10-10 0-63-39-115-88-115z m86-330l-229 0c-16 0-31 7-42 18-11 13-16 30-15 47l41 384c3 35 34 63 68 63l182 0c34 0 64-28 68-63l14-135c1-6-3-12-9-12-6-1-11 3-12 9l-14 136c-3 23-24 44-47 44l-182 0c-23 0-45-21-47-44l-40-384c-2-11 2-22 9-30 6-8 16-12 26-12l229 0c6 0 11-4 11-10 0-6-5-11-11-11z m99 203c-32 0-59 34-59 75 0 5 5 10 11 10 6 0 11-5 11-10 0-29 17-53 37-53 20 0 37 24 37 53 0 5 5 10 11 10 6 0 11-5 11-10 0-41-27-75-59-75z m88-203l-176 0c-11 0-21 5-29 13-7 8-11 20-10 32l25 236c3 23 23 42 46 42l112 0c23 0 43-19 46-42l25-236c1-12-3-24-10-32-8-8-18-13-29-13z m-144 302c-12 0-23-11-25-24l-25-235c0-6 1-12 5-16 3-4 8-6 13-6l176 0c5 0 10 2 13 6 4 4 5 10 5 16l-25 235c-2 13-13 24-25 24z"/>
<glyph unicode="&#57346;" d="M429 102c-46 0-83 37-83 83 0 46 37 83 83 83 46 0 83-37 83-83 0-46-37-83-83-83z m0 145c-34 0-62-28-62-62 0-34 28-62 62-62 34 0 62 28 62 62 0 34-28 62-62 62z m-300-145c-46 0-83 37-83 83 0 46 37 83 83 83 46 0 83-37 83-83 0-46-37-83-83-83z m0 145c-34 0-62-28-62-62 0-34 28-62 62-62 34 0 62 28 62 62 0 34-28 62-62 62z m123-67c0 0-1 0-2 0-5 1-8 5-8 10-8 81-66 102-74 105l-100 0c-6 0-10 5-10 11 0 6 4 10 10 10l101 0c1 0 2 0 3 0 3-1 67-18 86-97l89 134c4 5 10 6 15 3 5-3 6-10 3-15l-104-156c-2-3-5-5-9-5z m177-6c-4 0-8 3-10 7l-86 208-36 0c-6 0-11 4-11 10 0 6 5 11 11 11l43 0c4 0 8-3 10-7l89-214c2-5-1-11-6-14-1 0-3-1-4-1z m-238 114c-4 0-9 3-10 7-2 6 1 12 7 14l166 54c5 2 11-1 13-7 2-5-1-11-7-13l-166-55c-1 0-2 0-3 0z m217 59l-27 0c-6 0-10 5-10 11 0 6 4 10 10 10l27 0c6 0 10-4 10-10 0-6-4-11-10-11z m-397-160c-1 0-2 1-2 1-6 1-10 6-9 12 17 94 89 115 92 116 5 2 11-2 13-7 2-6-2-12-7-14-3 0-63-18-77-99-1-5-5-9-10-9z m201 155l-159 0c-6 0-11 5-11 11 0 6 5 11 11 11l159 0c6 0 11-5 11-11 0-6-5-11-11-11z"/>
<glyph unicode="&#57347;" d="M311 391c-34 0-61 27-61 61 0 33 27 60 61 60 33 0 60-27 60-60 0-34-27-61-60-61z m0 100c-22 0-40-18-40-39 0-22 18-40 40-40 21 0 39 18 39 40 0 21-18 39-39 39z m-77-475c-5 0-11 1-16 4-18 9-25 30-16 48l59 116 0 60c-3-5-5-9-7-13-7-13-19-20-33-20-5 0-11 1-16 4-8 4-15 12-18 21-3 9-2 19 3 27 15 31 57 106 104 119 13 3 27-1 36-10 0 0 52-52 105-52 10-1 19-5 26-11 6-7 10-16 10-26-1-19-17-35-36-35-20 0-40 4-60 12l0-40 48-37c9-6 15-17 15-28l0-95c0-20-17-36-36-36-20 0-36 16-36 36l0 77-35 27-65-128c-6-12-18-20-32-20z m37 276c1 0 2 0 3-1 5-1 8-5 8-10l0-99c0-2 0-4-1-5l-60-118c-3-8-1-16 7-20 7-4 16-1 19 6l70 140c2 2 4 5 7 5 4 1 7 0 9-2l50-37c3-2 4-5 4-9l0-82c0-8 7-15 15-15 8 0 14 7 14 15l0 95c0 4-2 9-6 11l-52 40c-3 2-4 5-4 9l0 60c0 4 1 7 4 9 4 2 7 3 11 1 22-10 44-16 65-16 9 0 15 6 15 14 0 4-1 8-4 11-3 3-6 4-10 4-63 1-120 59-121 59-3 4-9 5-14 4-32-9-68-61-91-108-2-3-3-7-1-11 1-3 3-6 7-8 7-4 16-1 19 6 8 16 18 32 28 47 2 3 6 5 9 5z m-159-238c-1 0-3 0-4 1l-60 27c-6 3-8 9-6 14 3 6 9 8 15 6l51-24 90 145c3 5 10 7 15 4 5-4 6-10 3-15l-95-153c-2-3-5-5-9-5z m-15 49c-1 0-3 0-5 1-5 3-7 10-4 15l58 97c3 5 9 7 15 4 5-3 6-10 3-15l-57-97c-2-3-6-5-10-5z m33-76c0-9-8-16-16-16-9 0-17 7-17 16 0 9 8 16 17 16 8 0 16-7 16-16z"/>
<glyph unicode="&#57348;" d="M474 158l-8 0c-6 0-11 5-11 11 0 6 5 11 11 11l8 0c9 0 17 7 17 16l0 110c0 10-8 17-17 17l-82 0c-10 0-17-7-17-17l0-110c0-9 7-16 15-16 6 0 10-5 10-11 0-6-4-11-10-11-20 0-36 17-36 38l0 110c0 21 17 38 38 38l82 0c21 0 38-17 38-38l0-110c0-21-17-38-38-38z m-137 0l-118 0c-6 0-11 5-11 11 0 6 5 11 11 11l118 0c9 0 17 7 17 16l0 158c0 9-8 16-17 16l-299 0c-9 0-17-7-17-16l0-158c0-9 8-16 17-16l19 0c6 0 11-5 11-11 0-6-5-11-11-11l-19 0c-21 0-38 17-38 38l0 158c0 21 17 38 38 38l299 0c21 0 38-17 38-38l0-158c0-21-17-38-38-38z m91-38c-27 0-49 22-49 49 0 27 22 49 49 49 26 0 48-22 48-49 0-27-22-49-48-49z m0 76c-15 0-28-12-28-27 0-15 13-27 28-27 15 0 27 12 27 27 0 15-12 27-27 27z m-332-76c-27 0-48 22-48 49 0 27 21 49 48 49 27 0 49-22 49-49 0-27-22-49-49-49z m0 76c-15 0-27-12-27-27 0-15 12-27 27-27 15 0 27 12 27 27 0 15-12 27-27 27z m85-76c-27 0-49 22-49 49 0 27 22 49 49 49 27 0 48-22 48-49 0-27-21-49-48-49z m0 76c-15 0-28-12-28-27 0-15 13-27 28-27 15 0 27 12 27 27 0 15-12 27-27 27z m315 46l-83 0c-6 0-11 5-11 11l0 81c0 6 5 10 11 10 6 0 11-4 11-10l0-70 72 0c6 0 11-5 11-11 0-6-5-11-11-11z"/>
<glyph unicode="&#57349;" d="M126 263c-70 0-126 55-126 124 0 69 56 125 126 125 69 0 125-56 125-125 0-69-56-124-125-124z m0 228c-58 0-105-47-105-104 0-57 47-103 105-103 57 0 104 46 104 103 0 57-47 104-104 104z m0-482c-6 0-11 5-11 11l0 247c0 6 5 10 11 10 6 0 10-4 10-10l0-247c0-6-4-11-10-11z m375-9l-452 0c-5 0-10 5-10 11 0 6 5 10 10 10l452 0c6 0 11-4 11-10 0-6-5-11-11-11z m-312 370l-63 0c-6 0-11 5-11 11l0 79c0 6 5 10 11 10 6 0 10-4 10-10l0-68 53 0c6 0 11-5 11-11 0-6-5-11-11-11z m269-337l-196 0c-29 0-52 23-52 52l0 110c0 29 23 52 52 52l196 0c29 0 52-23 52-52l0-110c0-29-23-52-52-52z m-196 192c-17 0-31-13-31-30l0-110c0-17 14-31 31-31l196 0c17 0 31 14 31 31l0 110c0 17-14 30-31 30z m166 10c-6 0-11 5-11 11l0 35-114 0 0-35c0-6-5-11-11-11-6 0-10 5-10 11l0 46c0 6 4 11 10 11l136 0c6 0 10-5 10-11l0-46c0-6-4-11-10-11z"/>
<glyph unicode="&#57350;" d="M256 0c-141 0-256 115-256 256 0 141 115 256 256 256 141 0 256-115 256-256 0-141-115-256-256-256z m0 491c-129 0-235-106-235-235 0-129 106-235 235-235 129 0 235 106 235 235 0 129-106 235-235 235z m0-386c-83 0-151 68-151 151 0 83 68 151 151 151 83 0 151-68 151-151 0-83-68-151-151-151z m0 281c-71 0-130-59-130-130 0-71 59-130 130-130 72 0 130 59 130 130 0 71-58 130-130 130z m-52-7c-2 0-4 1-6 2-72 41-49 102-49 103 2 5 8 8 14 6 5-2 8-8 6-14-1-2-16-45 40-77 5-2 7-9 4-14-2-4-6-6-9-6z m115-2c-5 0-9 4-11 8-20 81 40 107 41 107 6 2 12 0 14-6 2-5 0-11-6-13-2-1-44-20-28-82 1-6-2-12-8-13-1-1-1-1-2-1z m31-355c-1 0-3 0-4 1-5 2-8 8-6 13 1 2 16 46-40 77-5 3-7 10-4 15 3 5 9 7 15 4 72-41 49-103 49-103-2-5-6-7-10-7z m-194-2c-4 0-8 2-10 6-2 6 0 12 6 14 2 1 44 20 28 82-2 6 2 12 8 13 5 1 11-2 13-8 20-80-41-106-41-107-1 0-3 0-4 0z m232 277c-1 0-3 0-5 1-5 3-7 9-4 14 41 73 102 50 103 50 6-2 8-8 6-14-2-5-8-8-14-6-2 1-45 16-76-40-2-3-6-5-10-5z m93-150c-5 0-9 2-10 7-1 1-20 43-82 28-6-2-12 2-13 8-2 5 2 11 8 12 80 21 106-40 106-40 3-6 0-12-5-14-2-1-3-1-4-1z m-431 0c-13 0-23 4-23 4-6 2-8 8-6 14 2 5 8 8 14 6 2-1 45-16 76 40 3 5 10 7 15 4 5-3 7-10 4-15-25-44-58-53-80-53z m44 159c-56 0-75 44-75 45-3 5 0 12 5 14 6 2 12 0 14-6 1-2 20-44 82-28 6 1 12-2 13-8 2-6-2-11-8-13-11-3-22-4-31-4z"/>
<glyph unicode="&#57351;" d="M299 2c-6 0-11 5-11 11l0 142c0 21-14 38-30 38l-4 0c-16 0-30-17-30-38l0-142c0-6-5-11-11-11-5 0-10 5-10 11l0 142c0 33 23 60 51 60l4 0c28 0 51-27 51-60l0-142c0-6-4-11-10-11z m67 254l-220 0c-4 0-7 1-9 4-19 23-44 81 1 131 20 23 41 41 59 56 25 22 45 38 49 57 1 4 5 8 10 8 5 0 9-4 10-8 4-19 24-35 49-57 18-15 39-33 59-56 56-62 3-129 1-131-2-3-5-4-9-4z m-215 21l210 0c9 13 35 58-3 100-19 22-40 39-57 54-19 16-35 30-45 45-10-15-26-29-45-45-18-15-38-32-57-54-38-42-12-87-3-100z m224-277l-238 0c-6 0-11 5-11 11l0 255c0 6 5 11 11 11l238 0c6 0 11-5 11-11l0-255c0-6-5-11-11-11z m-228 21l218 0 0 235-218 0z m-52 235l-77 0c-3 0-6 1-8 4-1 2-22 33 0 63 7 10 15 18 21 25 8 8 14 14 15 20 1 6 5 9 11 9 5 0 9-3 10-9 1-6 7-12 15-20 6-7 14-15 21-25 22-30 2-61 1-63-2-3-6-4-9-4z m-70 21l63 0c4 7 7 21-2 33-6 9-13 17-19 23-4 4-7 7-10 11-3-4-7-7-10-11-6-6-13-14-20-23-9-12-5-26-2-33z m72-277l-81 0c-6 0-10 5-10 11l0 255c0 6 4 11 10 11l81 0c6 0 11-5 11-11l0-255c0-6-5-11-11-11z m-70 21l59 0 0 235-59 0z m467 235l-77 0c-3 0-7 1-9 4-1 2-21 33 1 63 7 10 15 18 21 25 8 8 14 14 15 20 1 6 5 9 10 9 0 0 0 0 0 0 6 0 10-3 11-9 1-6 7-12 15-20 6-7 14-15 21-25 22-30 1-61 0-63-2-3-5-4-8-4z m-70 21l63 0c3 7 7 21-2 33-7 9-14 17-20 23-3 4-7 7-10 11-3-4-6-7-10-11-6-6-13-14-19-23-9-12-6-26-2-33z m72-277l-81 0c-6 0-11 5-11 11l0 255c0 6 5 11 11 11l81 0c6 0 10-5 10-11l0-255c0-6-4-11-10-11z m-70 21l59 0 0 235-59 0z"/>
<glyph unicode="&#57352;" d="M177 422l-39 0c-5 0-10 5-10 11 0 6 5 10 10 10l39 0c6 0 10-4 10-10 0-6-4-11-10-11z m98 0l-38 0c-6 0-11 5-11 11 0 6 5 10 11 10l38 0c6 0 11-4 11-10 0-6-5-11-11-11z m99 0l-39 0c-6 0-10 5-10 11 0 6 4 10 10 10l39 0c5 0 10-4 10-10 0-6-5-11-10-11z m127-422l-87 0c-5 0-10 5-10 11l0 330c0 12-11 22-25 22l-246 0c-14 0-25-10-25-22l0-330c0-6-5-11-10-11l-87 0c-6 0-11 5-11 11l0 447c0 30 26 54 57 54l398 0c31 0 57-24 57-54l0-447c0-6-5-11-11-11z m-76 21l66 0 0 437c0 18-17 33-36 33l-398 0c-20 0-36-15-36-33l0-437 66 0 0 320c0 24 20 43 46 43l246 0c26 0 46-19 46-43l0-320z m-169 228c-20 0-37 17-37 37 0 20 17 36 37 36 20 0 37-16 37-36 0-20-17-37-37-37z m0 52c-8 0-15-7-15-15 0-9 7-15 15-15 8 0 15 6 15 15 0 8-7 15-15 15z m-23-301c-6 0-11 5-11 11l0 102c0 6 5 11 11 11 6 0 11-5 11-11l0-102c0-6-5-11-11-11z m46 0c-6 0-11 5-11 11l0 102c0 6 5 11 11 11 6 0 11-5 11-11l0-102c0-6-5-11-11-11z m11 102l-68 0c-6 0-10 4-10 10l0 93c0 22 17 39 38 39l12 0c21 0 38-17 38-39l0-93c0-6-4-10-10-10z m-57 21l46 0 0 82c0 10-8 18-17 18l-12 0c-9 0-17-8-17-18z m-47-12c-1 0-2 1-3 1-6 2-9 8-7 14l37 95c2 5 8 8 14 6 5-2 8-9 6-14l-37-95c-1-4-5-7-10-7z m140 0c-5 0-9 3-10 7l-37 95c-2 5 1 12 6 14 6 2 12-1 14-6l37-95c2-6-1-12-7-14-1 0-2-1-3-1z"/>
<glyph unicode="&#57353;" d="M310 0c-21 0-41 7-55 19-108 89-193 204-248 333-15 33-5 76 20 96l28 21c3 2 7 2 10 1 3 0 6-3 7-6 59-167 165-310 307-413 3-2 5-5 5-8 0-4-2-7-4-9l-28-21c-11-8-26-13-42-13z m-253 443l-17-12c-17-14-24-47-14-71 54-125 138-237 242-324 11-9 26-15 42-15 0 0 0 0 0 0 11 0 22 3 29 9l16 12c-136 103-239 241-298 401z m63-123c-1 0-2 0-3 0-3 1-5 3-7 5-23 42-42 87-58 132-2 4 0 9 3 12l54 41c3 2 7 3 10 2 3-1 6-4 7-7 16-44 35-87 57-128 3-5 2-11-3-14l-54-41c-2-2-4-2-6-2z m-46 136c14-37 30-74 49-110l37 28c-19 36-35 73-49 110z m299-424c-2 0-4 0-6 2-39 28-75 59-109 93-2 2-3 5-3 8 0 4 2 6 4 8l54 41c5 3 11 3 14-1 33-33 69-64 107-91 2-2 4-5 4-8 0-4-1-7-4-9l-54-41c-2-2-5-2-7-2z m-91 102c28-29 59-55 91-78l37 27c-32 24-63 51-91 79z m150-121c-12 0-24 3-36 5-9 2-18 4-27 5-6 1-10 6-10 12 1 6 6 10 12 10 11-2 20-4 29-6 27-6 47-10 67 12 17 18 17 55 6 78-1 2-2 5-4 7-11 23-32 66-3 88 5 4 11 6 15 7 9 3 10 3 10 11-1 10-15 21-27 31-9 7-17 14-23 21-4 5-3 11 2 15 5 4 11 3 15-2 4-5 11-11 19-17 16-13 34-27 35-47 1-24-15-29-24-32-4-1-7-2-10-4-14-11 2-44 11-61 1-3 2-5 3-7 14-31 15-77-9-103-17-18-34-23-51-23z"/>
<glyph unicode="&#57354;" d="M222 87l-31 0c-37 0-66 29-66 65l0 151c0 65 54 119 122 119l18 0c68 0 122-54 122-119l0-151c0-36-29-65-66-65l-29 0c-6 0-10 4-10 10 0 6 4 11 10 11l29 0c25 0 45 19 45 44l0 151c0 53-45 97-101 97l-18 0c-56 0-101-44-101-97l0-151c0-25 20-44 45-44l31 0c6 0 11-5 11-11 0-6-5-10-11-10z m34-87c-25 0-44 21-44 47l0 93c0 25 19 46 44 46 25 0 45-21 45-46l0-93c0-26-20-47-45-47z m0 165c-13 0-23-11-23-25l0-93c0-14 10-26 23-26 13 0 23 12 23 26l0 93c0 14-10 25-23 25z m0 241c-30 0-54 24-54 53 0 29 24 53 54 53 30 0 54-24 54-53 0-29-24-53-54-53z m0 85c-18 0-33-14-33-32 0-17 15-31 33-31 18 0 33 14 33 31 0 18-15 32-33 32z m-43-42l-106 0c-6 0-11 4-11 10 0 6 5 11 11 11l106 0c6 0 10-5 10-11 0-6-4-10-10-10z m192 0l-106 0c-6 0-10 4-10 10 0 6 4 11 10 11l106 0c6 0 11-5 11-11 0-6-5-10-11-10z"/>
<glyph unicode="&#57355;" d="M452 2c-1 0-1 0-1 0-6 0-10 5-10 11 3 77-14 127-50 150-60 38-155-11-156-11-3-2-7-2-10-1-3 2-5 5-6 8l-39 208c-1 6 2 11 8 13 6 1 12-3 13-9l37-194c30 13 108 40 164 4 43-27 63-84 60-169 0-5-5-10-10-10z m-176 288c-20 0-45 5-73 18-6 3-8 9-5 14 2 6 8 8 14 6 91-43 129 11 129 12 4 5 10 6 15 3 5-4 6-10 3-15 0-1-27-38-83-38z m-102 105c-32 0-58 26-58 58 0 33 26 59 58 59 33 0 59-26 59-59 0-32-26-58-59-58z m0 96c-20 0-37-17-37-38 0-20 17-37 37-37 21 0 38 17 38 37 0 21-17 38-38 38z m59-491c-101 0-184 83-184 184 0 51 21 98 58 133 4 5 11 4 15 0 4-4 4-11 0-15-33-31-51-73-51-118 0-90 73-163 162-163 44 0 85 17 115 48 5 4 11 4 16 0 4-4 4-11 0-15-35-35-81-54-131-54z"/>
<glyph unicode="&#57356;" d="M431 118l-245 0c-50 0-81 38-81 99l0 174c0 41-20 78-42 78l-52 0c-6 0-11 4-11 10 0 6 5 11 11 11l52 0c35 0 63-44 63-99l0-174c0-23 6-78 60-78l245 0c42 0 60 53 60 74l0 49c0 6 4 10 10 10 6 0 11-4 11-10l0-49c0-34-27-95-81-95z m-16 40l-213 0c-31 0-56 28-56 62l0 126c0 35 25 62 56 62l213 0c31 0 56-27 56-62l0-126c0-34-25-62-56-62z m-213 229c-19 0-35-18-35-41l0-126c0-23 16-41 35-41l213 0c19 0 35 18 35 41l0 126c0 23-16 41-35 41z m169 0c-6 0-10 5-10 11l0 41-104 0 0-41c0-6-5-11-11-11-6 0-11 5-11 11l0 52c0 6 5 10 11 10l125 0c6 0 11-4 11-10l0-52c0-6-5-11-11-11z m85-325c0-16-13-29-29-29-16 0-29 13-29 29 0 16 13 29 29 29 16 0 29-13 29-29z m-200 0c0-16-13-29-29-29-16 0-29 13-29 29 0 16 13 29 29 29 16 0 29-13 29-29z"/>
<glyph unicode="&#57357;" d="M348 145l-175 0c-6 0-11 5-11 11 0 6 5 10 11 10l175 0c5 0 10-4 10-10 0-6-5-11-10-11z m126 0l-14 0c-6 0-11 5-11 11 0 6 5 10 11 10l13 0c4 1 18 5 18 27l0 92-278 0c-5 0-10 5-10 10l0 101-71 0c-17-18-104-112-109-192 0-1-1-2-1-3 0 0-2-5 1-11 3-5 11-14 39-19 6-1 10-7 8-13-1-6-6-9-12-8-28 5-46 16-54 31-6 11-4 22-2 26 7 96 114 203 118 207 2 2 5 3 8 3l85 0c6 0 11-4 11-10l0-101 277 0c6 0 11-5 11-11l0-102c0-34-24-46-37-48 0 0-1 0-1 0z m-70-50c-35 0-63 28-63 63 0 35 28 63 63 63 35 0 63-28 63-63 0-35-28-63-63-63z m0 105c-23 0-42-19-42-42 0-23 19-42 42-42 23 0 42 19 42 42 0 23-19 42-42 42z m-287-105c-34 0-63 28-63 63 0 35 29 63 63 63 35 0 64-28 64-63 0-35-29-63-64-63z m0 105c-23 0-41-19-41-42 0-23 18-42 41-42 23 0 42 19 42 42 0 23-19 42-42 42z m47 81l-113 0c-6 0-10 4-10 10 0 6 4 11 10 11l113 0c6 0 11-5 11-11 0-6-5-10-11-10z"/>
<glyph unicode="&#57358;" d="M128 299c-44 0-80 37-80 84 0 46 36 84 80 84 44 0 79-38 79-84 0-47-35-84-79-84z m0 146c-32 0-58-28-58-62 0-35 26-63 58-63 32 0 58 28 58 63 0 34-26 62-58 62z m355-102l-170 0c-6 0-11 5-11 11 0 56 43 101 96 101 52 0 95-45 95-101 0-6-4-11-10-11z m-159 22l147 0c-4 39-36 69-73 69-38 0-69-30-74-69z m177-66l-207 0c-6 0-11 5-11 10 0 6 5 11 11 11l207 0c6 0 11-5 11-11 0-5-5-10-11-10z m-80 167c-6 0-10 4-10 10 0 8-6 15-13 15-8 0-13-7-13-15 0-6-5-10-11-10-6 0-11 4-11 10 0 20 16 36 35 36 19 0 34-16 34-36 0-6-5-10-11-10z m-176-466l-234 0c-6 0-11 5-11 11l0 174c0 56 43 101 96 101l64 0c14 0 47-11 53-15l101-83 59 85c7 10 18 16 29 16 8 0 16-3 22-7 16-13 19-36 8-53l-81-117c-6-8-14-13-24-15-10-1-20 1-28 8l-43 35 0-129c0-1 0-1-1-1 0-6-4-10-10-10z m-224 21l213 0 0 142c0 4 3 8 6 9 4 2 8 2 12-1l61-50c3-2 7-3 11-3 4 1 7 3 9 7l81 116c5 8 4 18-3 24-7 5-16 3-21-4l-65-94c-1-3-4-4-7-5-3 0-6 1-8 3l-111 89c-3 2-29 11-39 11l-64 0c-20 0-39-8-53-23-14-15-22-35-22-57z"/>
</font>
</defs>
</svg>
