<?xml version="1.0" encoding="UTF-8" standalone="no"?>
<!DOCTYPE svg PUBLIC "-//W3C//DTD SVG 1.1//EN" "http://www.w3.org/Graphics/SVG/1.1/DTD/svg11.dtd">
<svg xmlns="http://www.w3.org/2000/svg">
<metadata/>
<defs>
<font id="the_marmaladebold" horiz-adv-x="1208">
<font-face units-per-em="2048" ascent="1536" descent="-512"/>
<missing-glyph horiz-adv-x="1126"/>
<glyph horiz-adv-x="0"/>
<glyph horiz-adv-x="682"/>
<glyph unicode=" " horiz-adv-x="1126"/>
<glyph unicode="	" horiz-adv-x="1126"/>
<glyph unicode=" " horiz-adv-x="1126"/>
<glyph unicode="!" d="M553 -51v307h307v-307h-307zM553 358v1127h307v-1127h-307z"/>
<glyph unicode="&quot;" horiz-adv-x="1382" d="M410 973v512h307v-512h-307zM870 973v512h308v-512h-308z"/>
<glyph unicode="#" horiz-adv-x="2048" d="M451 307l73 307h193l49 205h-193l74 307h195l86 359h315l-86 -359h135l88 359h316l-86 -359h192l-73 -307h-193l-51 -205h194l-75 -307h-193l-86 -358h-315l86 358h-138l-86 -358h-315l86 358h-192zM1034 614h135l50 205h-136z"/>
<glyph unicode="$" horiz-adv-x="1597" d="M451 1024q0 76 22.5 143.5t63.5 125t97 99.5t124 66v180h307v-180q111 -39 189.5 -126t105.5 -204l-295 -104q0 63 -45 108.5t-109 45.5q-66 0 -109.5 -45.5t-43.5 -108.5t44 -108.5t109 -45.5q94 0 178.5 -35.5t147.5 -99t99 -147.5t36 -178q0 -76 -22.5 -143.5 t-63.5 -125t-97 -99.5t-124 -67v-180h-307v180q-111 39 -190 126t-105 204l295 105q0 -63 44 -108.5t109 -45.5q63 0 108.5 45t45.5 109q0 63 -45 108t-109 45q-96 0 -179 36t-146.5 99.5t-99 146.5t-35.5 179z"/>
<glyph unicode="%" horiz-adv-x="2111" d="M451 1178q0 63 24.5 119.5t65.5 97.5t97.5 65.5t119.5 24.5t119.5 -24.5t97.5 -65.5t65.5 -97.5t24.5 -119.5t-24.5 -120t-65.5 -97.5t-97.5 -65.5t-119.5 -25t-119.5 25t-97.5 65.5t-65.5 97t-24.5 120.5zM479 55l1123 1481l202 -156l-1122 -1480zM655 1178 q0 -43 30 -73t73 -30t72.5 30t29.5 73t-29.5 72.5t-72.5 29.5t-73 -29.5t-30 -72.5zM1251 256q0 63 24.5 119.5t65.5 97.5t98 65.5t120 24.5t119.5 -24.5t97.5 -65.5t65.5 -97.5t24.5 -119.5t-24.5 -119.5t-65.5 -97.5t-97.5 -65.5t-119.5 -24.5t-120 24.5t-98 65.5 t-65.5 97.5t-24.5 119.5zM1456 256q0 -43 30 -72.5t73 -29.5q41 0 71.5 29.5t30.5 72.5t-31 72.5t-71 29.5q-43 0 -73 -29.5t-30 -72.5z"/>
<glyph unicode="&amp;" horiz-adv-x="1966" d="M471 410q0 88 34 173t101 152l101 103l-35 34q-53 53 -80 119t-27 135.5t26.5 135t80.5 118.5q51 51 117.5 78t135 27t134.5 -27t119 -78q51 -53 77.5 -118.5t26.5 -135t-26.5 -135t-77.5 -119.5l-37 -34l217 -220l186 187l217 -217l-184 -187l184 -184l-217 -217 l-186 184l-101 -100q-68 -68 -152.5 -101.5t-172.5 -33.5t-173 33.5t-153 101.5t-101.5 153t-33.5 173zM778 409.5q0 -63.5 45 -108.5t108.5 -45t108.5 45l101 100l-217 217l-101 -100q-45 -45 -45 -108.5zM872.5 1126.5q-0.5 -20.5 16.5 -36.5l35 -35l37 35q16 16 16 36.5 t-16 36.5q-16 14 -37 14.5t-35 -14.5q-16 -16 -16.5 -36.5z"/>
<glyph unicode="'" horiz-adv-x="921" d="M410 973v512h307v-512h-307z"/>
<glyph unicode="(" horiz-adv-x="1122" d="M410 717q0 231 62.5 442t178.5 395l267 -153q-96 -150 -148.5 -322t-52.5 -362t52 -362.5t149 -321.5l-267 -154q-117 184 -179 395t-62 443z"/>
<glyph unicode=")" horiz-adv-x="1120" d="M410 33q96 150 147 322t51 362t-51 362t-147 322l266 153q115 -184 177 -395t62 -442t-62 -442.5t-177 -395.5z"/>
<glyph unicode="*" horiz-adv-x="2056" d="M389 465l434 252l-434 250l154 266l434 -250v502h307v-502l434 250l154 -266l-434 -250l434 -252l-154 -266l-434 252v-502h-307v502l-434 -252z"/>
<glyph unicode="+" horiz-adv-x="1740" d="M410 563v307h409v410h307v-410h410v-307h-410v-409h-307v409h-409z"/>
<glyph unicode="," horiz-adv-x="921" d="M410 256h307v-268l-123 -244h-184v512z"/>
<glyph unicode="-" d="M348 563v307h717v-307h-717z"/>
<glyph unicode="." horiz-adv-x="921" d="M410 -51v307h307v-307h-307z"/>
<glyph unicode="/" horiz-adv-x="1454" d="M266 35l858 1515l269 -151l-861 -1516z"/>
<glyph unicode="0" horiz-adv-x="2027" d="M348 717q0 160 60.5 299t165 243.5t243.5 165t299 60.5t299 -60.5t243.5 -165t165 -243.5t60.5 -299t-60.5 -299t-165 -243.5t-243.5 -165t-299 -60.5t-299 60.5t-243.5 165t-165 243.5t-60.5 299zM655 717q0 -96 36 -179t99.5 -146.5t146.5 -99.5t179 -36q94 0 178 36 t147.5 99.5t99.5 146.5t36 179q0 94 -36 178t-99.5 147.5t-147.5 99.5t-178 36q-96 0 -179 -36t-146.5 -99.5t-99.5 -147.5t-36 -178z"/>
<glyph unicode="1" d="M553 -51v1536h307v-1536h-307z"/>
<glyph unicode="2" horiz-adv-x="1718" d="M348 -51l750 891q47 53 47 133q0 43 -16.5 80t-44 64.5t-64.5 44t-80 16.5q-86 0 -145.5 -59.5t-59.5 -145.5q0 -51 23 -92l22 -47l-274 -138l-23 47q-27 51 -41 109.5t-14 120.5q0 106 40 199.5t109.5 163t163 109.5t199.5 40t199.5 -40t163 -109.5t109.5 -163 t40 -199.5q0 -94 -31.5 -179t-87.5 -153l-325 -385h444v-307h-1104z"/>
<glyph unicode="3" horiz-adv-x="1699" d="M430 248l270 155q18 -63 71.5 -105t125.5 -42q86 0 145.5 59.5t59.5 145.5t-59.5 145.5t-145.5 59.5h-334l340 512h-387v307h959l-369 -557q68 -31 123 -78t95 -107.5t62.5 -132t22.5 -149.5q0 -106 -40 -199.5t-109.5 -163t-162.5 -109.5t-200 -40q-78 0 -148.5 21.5 t-131 61.5t-108.5 95t-79 121z"/>
<glyph unicode="4" horiz-adv-x="1832" d="M451 307l280 1204l299 -69l-192 -828h237v615h307v-615h205v-307h-205v-358h-307v358h-624z"/>
<glyph unicode="5" horiz-adv-x="1716" d="M471 250l268 156q18 -66 72.5 -108t126.5 -42q86 0 145.5 59.5t59.5 145.5t-59.5 145.5t-145.5 59.5q-61 0 -110.5 -32t-73.5 -85l-271 108l99 828h766v-307h-494l-27 -217q55 12 111 12q106 0 199.5 -40t163 -109.5t109.5 -163t40 -199.5t-40 -199.5t-109.5 -163 t-163 -109.5t-199.5 -40q-78 0 -149.5 21.5t-132 61.5t-107.5 95t-78 123z"/>
<glyph unicode="6" horiz-adv-x="1679" d="M430 465q0 125 57 235l426 861l275 -136l-221 -448q100 -6 189 -48t155.5 -110.5t104.5 -160t38 -193.5q0 -106 -40 -199.5t-109.5 -163t-162.5 -109.5t-200 -40q-106 0 -199.5 40t-163 109.5t-109.5 162.5t-40 200zM737 465q0 -86 59.5 -145.5t145.5 -59.5t145.5 59.5 t59.5 145.5t-59.5 145.5t-145.5 59.5t-145.5 -59.5t-59.5 -145.5z"/>
<glyph unicode="7" horiz-adv-x="1736" d="M451 1178v307h1101l-684 -1569l-280 123l495 1139h-632z"/>
<glyph unicode="8" horiz-adv-x="1638" d="M410 461q0 117 47 215t127 168q-35 49 -53.5 107.5t-18.5 123.5q0 84 31.5 159t87 130t130.5 88t161 33q84 0 158.5 -33t130 -88t88 -130t32.5 -159q0 -66 -18 -124t-53 -107q80 -70 127 -168t47 -215q0 -106 -40 -199.5t-110 -163t-163 -109.5t-199 -40t-199.5 40 t-163.5 109.5t-109.5 162.5t-39.5 200zM717 461q0 -86 59.5 -145.5t145.5 -59.5t145 59.5t59 145.5t-59 145.5t-145 59.5t-145.5 -59.5t-59.5 -145.5zM819 1075q0 -43 30 -72.5t73 -29.5t72.5 29.5t29.5 72.5t-29.5 73t-72.5 30t-73 -30t-30 -73z"/>
<glyph unicode="9" horiz-adv-x="1597" d="M389 973q0 106 40 199.5t109.5 163t163 109.5t199.5 40t199.5 -40t163 -109.5t109.5 -163t40 -199.5q0 -125 -57 -236l-426 -860l-275 135l222 449q-102 4 -191.5 46t-155 111.5t-103.5 160.5t-38 194zM696 973q0 -86 59.5 -145.5t145.5 -59.5t145.5 59.5t59.5 145.5 t-59.5 145.5t-145.5 59.5t-145.5 -59.5t-59.5 -145.5z"/>
<glyph unicode=":" horiz-adv-x="921" d="M410 -51v307h307v-307h-307zM410 768v307h307v-307h-307z"/>
<glyph unicode=";" horiz-adv-x="921" d="M410 256h307v-268l-123 -244h-184v512zM410 768v307h307v-307h-307z"/>
<glyph unicode="&lt;" horiz-adv-x="1683" d="M451 582v270l809 397l137 -276l-523 -256l523 -256l-137 -277z"/>
<glyph unicode="=" horiz-adv-x="1740" d="M410 358v308h1126v-308h-1126zM410 768v307h1126v-307h-1126z"/>
<glyph unicode="&gt;" horiz-adv-x="1683" d="M494 461l520 256l-520 256l135 276l809 -397v-270l-809 -398z"/>
<glyph unicode="?" horiz-adv-x="1439" d="M348 1149q25 74 69 135.5t104.5 105.5t134 69.5t153.5 25.5q100 0 189 -38t156 -104.5t104.5 -155.5t37.5 -190q0 -80 -24.5 -153.5t-69.5 -134t-105.5 -104.5t-133.5 -68v-179h-308v461h154q76 0 128 52.5t52 125.5q0 76 -52 128.5t-128 52.5q-68 0 -118 -45.5 t-58 -110.5zM655 -51v307h308v-307h-308z"/>
<glyph unicode="@" horiz-adv-x="2109" d="M389 717q0 160 60.5 299t165 243.5t243.5 165t299 60.5t299 -60.5t243.5 -165t165 -243.5t60.5 -299q0 -96 -36 -179t-99.5 -146.5t-147 -99.5t-178.5 -36h-24.5t-22.5 2l99 -221q-80 -41 -170.5 -64.5t-188.5 -23.5q-160 0 -299 60.5t-243.5 165t-165 243.5t-60.5 299z M696 717q0 -96 36 -179t99.5 -146.5t146.5 -99.5t179 -36q78 0 154 27q-74 25 -137 75h-17q-74 0 -139.5 28t-114.5 77t-76.5 114.5t-27.5 139.5t27.5 139.5t76.5 114.5t114.5 76.5t139.5 27.5t139.5 -27.5t114.5 -76.5t77 -114.5t28 -139.5q0 -80 -35 -154q59 8 98 51 t39 103q0 94 -36 178t-99.5 147.5t-147.5 99.5t-178 36q-96 0 -179 -36t-146.5 -99.5t-99.5 -147.5t-36 -178zM1053 717q0 -45 29.5 -75t74.5 -30t75 30t30 75t-30 74.5t-75 29.5t-74.5 -29.5t-29.5 -74.5z"/>
<glyph unicode="A" horiz-adv-x="2164" d="M328 -51l884 1620l887 -1620h-350l-141 256h-791l-139 -256h-350zM956 465h510l-254 465z"/>
<glyph unicode="B" horiz-adv-x="2109" d="M553 -51v1536h768q94 0 178 -36t147.5 -99.5t99.5 -147.5t36 -178q0 -137 -74 -252q80 -63 128 -157.5t48 -204.5q0 -96 -36 -179.5t-99 -147t-147 -99t-179 -35.5h-870zM858 256h565q63 0 108.5 45t45.5 109q0 63 -45 108t-109 45h-565v-307zM860 870h461 q63 0 108.5 45.5t45.5 108.5t-45.5 108.5t-108.5 45.5h-461v-308z"/>
<glyph unicode="C" horiz-adv-x="1923" d="M369 717q0 160 60 299t164.5 243.5t244 165t299.5 60.5q188 0 348 -83t264 -222l31 -41l-244 -187l-31 41q-63 86 -158.5 135.5t-209.5 49.5q-96 0 -179.5 -36t-146.5 -99.5t-99 -147.5t-36 -178q0 -96 36 -179t99 -146.5t146 -99.5t180 -36q115 0 210 49t158 135l31 41 l244 -186l-31 -41q-104 -141 -264 -223t-348 -82q-160 0 -299.5 60.5t-244 165t-164.5 243.5t-60 299z"/>
<glyph unicode="D" horiz-adv-x="2048" d="M545 -51v1536h563q160 0 299 -60.5t243.5 -165t165 -243.5t60.5 -299t-60.5 -299t-165 -243.5t-243.5 -165t-299 -60.5h-563zM852 256h256q94 0 178 36t147.5 99.5t99.5 146.5t36 179q0 94 -36 178t-99.5 147.5t-147.5 99.5t-178 36h-256v-922z"/>
<glyph unicode="E" horiz-adv-x="2007" d="M553 -51v1536h1126v-307h-819v-308h615v-307h-615v-307h819v-307h-1126z"/>
<glyph unicode="F" horiz-adv-x="1904" d="M553 -51v1536h1126v-307h-819v-308h615v-307h-615v-614h-307z"/>
<glyph unicode="G" horiz-adv-x="2025" d="M389 717q0 160 60.5 299t165 243.5t243.5 165t299 60.5q203 0 370 -94.5t271 -251.5l-244 -189q-59 102 -163.5 165t-233.5 63q-96 0 -179 -36t-146.5 -99.5t-99.5 -147.5t-36 -178q0 -96 36 -179t99.5 -146.5t146.5 -99.5t179 -36q90 0 168 31.5t139 85.5v88h-358v307 h666v-512q-104 -141 -264 -224t-351 -83q-160 0 -299 60.5t-243.5 165t-165 243.5t-60.5 299z"/>
<glyph unicode="H" horiz-adv-x="2232" d="M553 -51v1536h307v-615h717v615h307v-1536h-307v614h-717v-614h-307z"/>
<glyph unicode="I" d="M553 -51v1536h307v-1536h-307z"/>
<glyph unicode="J" horiz-adv-x="1736" d="M369 209l243 188l31 -41q35 -47 88 -73.5t115 -26.5q53 0 99 20.5t81 55.5t55.5 81t20.5 99v973h307v-973q0 -117 -44 -219.5t-121 -179t-179 -120.5t-219 -44q-137 0 -253 59.5t-194 159.5z"/>
<glyph unicode="K" horiz-adv-x="2037" d="M553 -51v1536h307v-582l535 582h417l-565 -617l576 -919h-363l-428 686l-172 -186v-500h-307z"/>
<glyph unicode="L" horiz-adv-x="1884" d="M553 -51v1536h307v-1229h819v-307h-1126z"/>
<glyph unicode="M" horiz-adv-x="2322" d="M514 -51v1536l746 -654l743 654v-1536h-326v882l-417 -415l-465 415v-882h-281z"/>
<glyph unicode="N" horiz-adv-x="2232" d="M553 -51v1536h82l942 -897v897h307v-1536h-84l-940 897v-897h-307z"/>
<glyph unicode="O" horiz-adv-x="2058" d="M348 717q0 160 60.5 299t165 243.5t243.5 165t299 60.5t299 -60.5t243.5 -165t165 -243.5t60.5 -299t-60.5 -299t-165 -243.5t-243.5 -165t-299 -60.5t-299 60.5t-243.5 165t-165 243.5t-60.5 299zM655 717q0 -96 36 -179t99.5 -146.5t146.5 -99.5t179 -36q94 0 178 36 t147.5 99.5t99.5 146.5t36 179q0 94 -36 178t-99.5 147.5t-147.5 99.5t-178 36q-96 0 -179 -36t-146.5 -99.5t-99.5 -147.5t-36 -178z"/>
<glyph unicode="P" horiz-adv-x="1843" d="M553 -51v1536h563q117 0 219.5 -44t179 -121t120.5 -179.5t44 -218.5q0 -117 -44 -219.5t-120.5 -179.5t-179 -121t-219.5 -44h-256v-409h-307zM860 666h256q53 0 99.5 20.5t81 55t55 80.5t20.5 100q0 53 -20.5 99t-55 81t-81 55.5t-99.5 20.5h-256v-512z"/>
<glyph unicode="Q" horiz-adv-x="2129" d="M369 717q0 160 60 299t164.5 243.5t244 165t299.5 60.5t299 -60.5t243.5 -165t165 -243.5t60.5 -299q0 -156 -57.5 -291t-155.5 -240l155 -237h-366l-41 61q-72 -29 -147.5 -45t-155.5 -16q-160 0 -299.5 60.5t-244 165t-164.5 243.5t-60 299zM676 717q0 -96 36 -179 t99 -146.5t146.5 -99.5t179.5 -36q68 0 129 18l-142 215h369l23 -34q39 55 60 121.5t21 140.5q0 94 -35.5 178t-99 147.5t-147.5 99.5t-178 36q-96 0 -179.5 -36t-146.5 -99.5t-99 -147.5t-36 -178z"/>
<glyph unicode="R" horiz-adv-x="1972" d="M553 -51v1536h698q152 0 264.5 -59.5t182 -154.5t97.5 -212q17 -69 17 -137q0 -48 -8 -94q-20 -114 -86.5 -213t-183.5 -156l326 -510h-367l-287 416h-327v-416h-326zM879 645h280q72 0 132.5 11.5t104.5 42t68.5 85t24.5 142.5q0 70 -24.5 114.5t-68.5 71.5t-104.5 37 t-132.5 10h-280v-514z"/>
<glyph unicode="S" horiz-adv-x="1755" d="M410 254l254 129l14 -27q45 -98 129 -146t201 -48q113 0 171 45t58 131q0 47 -13.5 80t-40 58.5t-67.5 47t-94 45.5l-117 45q-78 35 -148.5 76t-124.5 96.5t-87 130t-33 177.5q0 94 33 174t92 137t143 89t187 32q164 0 274.5 -62.5t188.5 -191.5l12 -21l-219 -157l-15 30 q-43 72 -99 101.5t-134 29.5q-82 0 -129 -37.5t-47 -109.5q0 -37 12 -65.5t39 -53t71 -49.5t109 -55l113 -47q76 -37 147.5 -78t127 -96.5t88 -132t32.5 -187.5q0 -104 -38 -188t-106.5 -142.5t-166.5 -90.5t-217 -32q-203 0 -350.5 88.5t-237.5 245.5z"/>
<glyph unicode="T" horiz-adv-x="1945" d="M410 1178v307h1331v-307h-512v-1229h-307v1229h-512z"/>
<glyph unicode="U" horiz-adv-x="2150" d="M512 614v871h307v-871q0 -74 27.5 -139t77 -114.5t115 -77t139.5 -27.5t139 27.5t114.5 77t77 115t27.5 138.5v871h307v-871q0 -139 -52 -260t-143.5 -211t-212 -142t-257.5 -52q-139 0 -260 52t-211.5 142t-142.5 211t-52 260z"/>
<glyph unicode="V" horiz-adv-x="2072" d="M225 1485h350l537 -981l535 981h350l-840 -1536h-92z"/>
<glyph unicode="W" horiz-adv-x="2314" d="M287 1485h329l306 -799l307 799h69l306 -799l307 799h327l-587 -1536h-92l-295 768l-295 -768h-92z"/>
<glyph unicode="X" horiz-adv-x="1925" d="M389 -51l494 788l-469 748h362l289 -459l287 459h362l-469 -748l496 -788h-363l-313 500l-313 -500h-363z"/>
<glyph unicode="Y" horiz-adv-x="1828" d="M246 1485h362l408 -651l409 651h363l-619 -985v-551h-307v551z"/>
<glyph unicode="Z" horiz-adv-x="1769" d="M389 -51l676 1229h-610v307h1130l-676 -1229h641v-307h-1161z"/>
<glyph unicode="[" horiz-adv-x="1218" d="M512 -256v1946h461v-308h-154v-1331h154v-307h-461z"/>
<glyph unicode="\" horiz-adv-x="1454" d="M266 1399l266 151l861 -1515l-269 -152z"/>
<glyph unicode="]" horiz-adv-x="1218" d="M451 51h153v1331h-153v308h460v-1946h-460v307z"/>
<glyph unicode="^" horiz-adv-x="1261" d="M410 750l323 98l324 -98l-62 -197l-262 82l-264 -82z"/>
<glyph unicode="_" horiz-adv-x="1433" d="M-51 -102h1536v-308h-1536v308z"/>
<glyph unicode="`" horiz-adv-x="1261" d="M410 1733l59 196l588 -180l-62 -197z"/>
<glyph unicode="a" horiz-adv-x="2164" d="M328 -51l884 1620l887 -1620h-350l-141 256h-791l-139 -256h-350zM956 465h510l-254 465z"/>
<glyph unicode="b" horiz-adv-x="2109" d="M553 -51v1536h768q94 0 178 -36t147.5 -99.5t99.5 -147.5t36 -178q0 -137 -74 -252q80 -63 128 -157.5t48 -204.5q0 -96 -36 -179.5t-99 -147t-147 -99t-179 -35.5h-870zM858 256h565q63 0 108.5 45t45.5 109q0 63 -45 108t-109 45h-565v-307zM860 870h461 q63 0 108.5 45.5t45.5 108.5t-45.5 108.5t-108.5 45.5h-461v-308z"/>
<glyph unicode="c" horiz-adv-x="1923" d="M369 717q0 160 60 299t164.5 243.5t244 165t299.5 60.5q188 0 348 -83t264 -222l31 -41l-244 -187l-31 41q-63 86 -158.5 135.5t-209.5 49.5q-96 0 -179.5 -36t-146.5 -99.5t-99 -147.5t-36 -178q0 -96 36 -179t99 -146.5t146 -99.5t180 -36q115 0 210 49t158 135l31 41 l244 -186l-31 -41q-104 -141 -264 -223t-348 -82q-160 0 -299.5 60.5t-244 165t-164.5 243.5t-60 299z"/>
<glyph unicode="d" horiz-adv-x="2048" d="M545 -51v1536h563q160 0 299 -60.5t243.5 -165t165 -243.5t60.5 -299t-60.5 -299t-165 -243.5t-243.5 -165t-299 -60.5h-563zM852 256h256q94 0 178 36t147.5 99.5t99.5 146.5t36 179q0 94 -36 178t-99.5 147.5t-147.5 99.5t-178 36h-256v-922z"/>
<glyph unicode="e" horiz-adv-x="2007" d="M553 -51v1536h1126v-307h-819v-308h615v-307h-615v-307h819v-307h-1126z"/>
<glyph unicode="f" horiz-adv-x="1904" d="M553 -51v1536h1126v-307h-819v-308h615v-307h-615v-614h-307z"/>
<glyph unicode="g" horiz-adv-x="2025" d="M389 717q0 160 60.5 299t165 243.5t243.5 165t299 60.5q203 0 370 -94.5t271 -251.5l-244 -189q-59 102 -163.5 165t-233.5 63q-96 0 -179 -36t-146.5 -99.5t-99.5 -147.5t-36 -178q0 -96 36 -179t99.5 -146.5t146.5 -99.5t179 -36q90 0 168 31.5t139 85.5v88h-358v307 h666v-512q-104 -141 -264 -224t-351 -83q-160 0 -299 60.5t-243.5 165t-165 243.5t-60.5 299z"/>
<glyph unicode="h" horiz-adv-x="2232" d="M553 -51v1536h307v-615h717v615h307v-1536h-307v614h-717v-614h-307z"/>
<glyph unicode="i" d="M553 -51v1536h307v-1536h-307z"/>
<glyph unicode="j" horiz-adv-x="1736" d="M369 209l243 188l31 -41q35 -47 88 -73.5t115 -26.5q53 0 99 20.5t81 55.5t55.5 81t20.5 99v973h307v-973q0 -117 -44 -219.5t-121 -179t-179 -120.5t-219 -44q-137 0 -253 59.5t-194 159.5z"/>
<glyph unicode="k" horiz-adv-x="2037" d="M553 -51v1536h307v-582l535 582h417l-565 -617l576 -919h-363l-428 686l-172 -186v-500h-307z"/>
<glyph unicode="l" horiz-adv-x="1884" d="M553 -51v1536h307v-1229h819v-307h-1126z"/>
<glyph unicode="m" horiz-adv-x="2322" d="M514 -51v1536l746 -654l743 654v-1536h-326v882l-417 -415l-465 415v-882h-281z"/>
<glyph unicode="n" horiz-adv-x="2232" d="M553 -51v1536h82l942 -897v897h307v-1536h-84l-940 897v-897h-307z"/>
<glyph unicode="o" horiz-adv-x="2058" d="M348 717q0 160 60.5 299t165 243.5t243.5 165t299 60.5t299 -60.5t243.5 -165t165 -243.5t60.5 -299t-60.5 -299t-165 -243.5t-243.5 -165t-299 -60.5t-299 60.5t-243.5 165t-165 243.5t-60.5 299zM655 717q0 -96 36 -179t99.5 -146.5t146.5 -99.5t179 -36q94 0 178 36 t147.5 99.5t99.5 146.5t36 179q0 94 -36 178t-99.5 147.5t-147.5 99.5t-178 36q-96 0 -179 -36t-146.5 -99.5t-99.5 -147.5t-36 -178z"/>
<glyph unicode="p" horiz-adv-x="1843" d="M553 -51v1536h563q117 0 219.5 -44t179 -121t120.5 -179.5t44 -218.5q0 -117 -44 -219.5t-120.5 -179.5t-179 -121t-219.5 -44h-256v-409h-307zM860 666h256q53 0 99.5 20.5t81 55t55 80.5t20.5 100q0 53 -20.5 99t-55 81t-81 55.5t-99.5 20.5h-256v-512z"/>
<glyph unicode="q" horiz-adv-x="2129" d="M369 717q0 160 60 299t164.5 243.5t244 165t299.5 60.5t299 -60.5t243.5 -165t165 -243.5t60.5 -299q0 -156 -57.5 -291t-155.5 -240l155 -237h-366l-41 61q-72 -29 -147.5 -45t-155.5 -16q-160 0 -299.5 60.5t-244 165t-164.5 243.5t-60 299zM676 717q0 -96 36 -179 t99 -146.5t146.5 -99.5t179.5 -36q68 0 129 18l-142 215h369l23 -34q39 55 60 121.5t21 140.5q0 94 -35.5 178t-99 147.5t-147.5 99.5t-178 36q-96 0 -179.5 -36t-146.5 -99.5t-99 -147.5t-36 -178z"/>
<glyph unicode="r" horiz-adv-x="1972" d="M553 -51v1536h698q152 0 264.5 -59.5t182 -154.5t97.5 -212q17 -69 17 -137q0 -48 -8 -94q-20 -114 -86.5 -213t-183.5 -156l326 -510h-367l-287 416h-327v-416h-326zM879 645h280q72 0 132.5 11.5t104.5 42t68.5 85t24.5 142.5q0 70 -24.5 114.5t-68.5 71.5t-104.5 37 t-132.5 10h-280v-514z"/>
<glyph unicode="s" horiz-adv-x="1755" d="M410 254l254 129l14 -27q45 -98 129 -146t201 -48q113 0 171 45t58 131q0 47 -13.5 80t-40 58.5t-67.5 47t-94 45.5l-117 45q-78 35 -148.5 76t-124.5 96.5t-87 130t-33 177.5q0 94 33 174t92 137t143 89t187 32q164 0 274.5 -62.5t188.5 -191.5l12 -21l-219 -157l-15 30 q-43 72 -99 101.5t-134 29.5q-82 0 -129 -37.5t-47 -109.5q0 -37 12 -65.5t39 -53t71 -49.5t109 -55l113 -47q76 -37 147.5 -78t127 -96.5t88 -132t32.5 -187.5q0 -104 -38 -188t-106.5 -142.5t-166.5 -90.5t-217 -32q-203 0 -350.5 88.5t-237.5 245.5z"/>
<glyph unicode="t" horiz-adv-x="1945" d="M410 1178v307h1331v-307h-512v-1229h-307v1229h-512z"/>
<glyph unicode="u" horiz-adv-x="2150" d="M512 614v871h307v-871q0 -74 27.5 -139t77 -114.5t115 -77t139.5 -27.5t139 27.5t114.5 77t77 115t27.5 138.5v871h307v-871q0 -139 -52 -260t-143.5 -211t-212 -142t-257.5 -52q-139 0 -260 52t-211.5 142t-142.5 211t-52 260z"/>
<glyph unicode="v" horiz-adv-x="2076" d="M225 1485h350l537 -981l535 981h350l-840 -1536h-92z"/>
<glyph unicode="w" horiz-adv-x="2320" d="M287 1485h329l306 -799l307 799h69l306 -799l307 799h327l-587 -1536h-92l-295 768l-295 -768h-92z"/>
<glyph unicode="x" horiz-adv-x="1925" d="M389 -51l494 788l-469 748h362l289 -459l287 459h362l-469 -748l496 -788h-363l-313 500l-313 -500h-363z"/>
<glyph unicode="y" horiz-adv-x="1828" d="M246 1485h362l408 -651l409 651h363l-619 -985v-551h-307v551z"/>
<glyph unicode="z" horiz-adv-x="1769" d="M389 -51l676 1229h-610v307h1130l-676 -1229h641v-307h-1161z"/>
<glyph unicode="{" horiz-adv-x="1323" d="M512 717l47 39q53 47 53 116v357q0 78 25 148.5t68 128t102 99.5t131 64l49 14l90 -292l-49 -15q-47 -16 -77.5 -55t-30.5 -92v-357q0 -84 -27 -155q27 -72 27 -156v-356q0 -53 30.5 -92t77.5 -56l49 -14l-90 -293l-49 14q-72 20 -131 63.5t-102 101t-68 128t-25 148.5 v356q0 35 -14 64.5t-39 52.5z"/>
<glyph unicode="|" d="M553 -256v1946h307v-1946h-307z"/>
<glyph unicode="}" horiz-adv-x="1320" d="M449 43l49 14q47 16 77.5 55.5t30.5 92.5v356q0 41 7.5 80t19.5 76q-12 37 -19.5 75.5t-7.5 79.5v357q0 53 -30.5 92t-77.5 55l-49 15l90 292l49 -14q70 -23 130 -64.5t103 -99t67.5 -128t24.5 -148.5v-357q0 -35 14.5 -64.5t39.5 -51.5l47 -39l-47 -39 q-25 -23 -39.5 -52.5t-14.5 -64.5v-356q0 -78 -24.5 -148.5t-67.5 -128t-103.5 -100.5t-129.5 -64l-49 -14z"/>
<glyph unicode="~" horiz-adv-x="1386" d="M410 735l39 33q51 43 120 66q66 20 137.5 14t137.5 -41q29 -16 58.5 -18.5t58.5 8.5q27 6 51 26l39 33l131 -160l-41 -32q-55 -46 -121 -64q-66 -20 -136.5 -14t-135.5 41q-29 16 -59 18t-58 -8q-29 -8 -53 -27l-37 -32z"/>
<glyph unicode="¡" d="M553 -51v1126h307v-1126h-307zM553 1178v307h307v-307h-307z"/>
<glyph unicode="¢" horiz-adv-x="1611" d="M410 512q0 96 30.5 184t86 159t130 123t162.5 77v174h307v-174q102 -29 184.5 -91.5t137.5 -150.5l-242 -186l-30 41q-35 47 -88.5 73.5t-114.5 26.5q-53 0 -99.5 -20.5t-81 -55.5t-55 -81t-20.5 -99t20.5 -99t55 -81t81 -55.5t99.5 -20.5q61 0 114.5 26.5t88.5 73.5 l30 41l242 -186q-55 -88 -137 -150.5t-185 -91.5v-174h-307v174q-88 25 -162.5 77t-130 123t-86 159t-30.5 184z"/>
<glyph unicode="£" horiz-adv-x="1863" d="M492 -51v307h153q23 0 37 14.5t14 36.5v51h-204v308h204v409q0 84 32 159t87 130t130 88t161 33q68 0 128 -20.5t110.5 -56.5t88 -86t58.5 -110l18 -49l-290 -102l-17 49q-10 29 -35.5 48.5t-60.5 19.5q-43 0 -72.5 -30t-29.5 -73v-409h204v-308h-204v-51 q0 -14 -1.5 -26.5t-3.5 -24.5h619v-307h-1126z"/>
<glyph unicode="¤" horiz-adv-x="1699" d="M410 391l127 127q-47 94 -47.5 198.5t47.5 198.5l-127 127l217 218l127 -127q94 45 198.5 45t198.5 -45l127 127l217 -218l-127 -127q45 -94 45 -198.5t-45 -198.5l127 -127l-217 -217l-127 127q-94 -45 -198.5 -45t-198.5 45l-127 -127zM797 716.5q0 -63.5 47 -108.5 q45 -45 108.5 -45t108.5 45t45 108.5t-45 108.5t-108.5 45t-108.5 -45q-47 -45 -47 -108.5z"/>
<glyph unicode="¥" horiz-adv-x="2033" d="M348 1485h363l407 -651l410 651h362l-385 -615h125v-307h-317l-41 -63v-39h358v-307h-358v-205h-307v205h-359v307h359v39l-39 63h-320v307h127z"/>
<glyph unicode="¦" d="M553 -256v819h307v-819h-307zM553 870v820h307v-820h-307z"/>
<glyph unicode="§" horiz-adv-x="1720" d="M451 717q0 86 26.5 162.5t73.5 142.5q-23 47 -36 99.5t-13 107.5q0 94 35.5 178t99 147.5t146.5 99.5t180 36q82 0 155.5 -27t133 -75t100.5 -113.5t59 -141.5l-295 -104q0 63 -45 108t-108 45t-108.5 -45t-45.5 -108q0 -16 2 -23q74 23 152 23q106 0 199 -40t163 -109.5 t110 -163t40 -199.5q0 -86 -27 -163t-74 -142q23 -47 36 -99.5t13 -107.5q0 -96 -35.5 -179t-99 -146.5t-147.5 -99.5t-178 -36q-82 0 -156 26.5t-133.5 75t-100.5 113t-59 141.5l295 105q0 -63 45 -108.5t109 -45.5q63 0 108 45t45 109q0 14 -2 22q-74 -23 -151 -22 q-106 0 -199.5 40t-163.5 109.5t-109.5 162.5t-39.5 200zM758 717q0 -86 59.5 -145.5t145.5 -59.5t145 59.5t59 145.5t-59 145.5t-145 59.5t-145.5 -59.5t-59.5 -145.5z"/>
<glyph unicode="¨" horiz-adv-x="1536" d="M408 1740.5q0 63.5 45 108.5t108.5 45t108.5 -45q47 -45 47 -108.5t-47 -108.5q-45 -45 -108.5 -45t-108.5 45t-45 108.5zM1022 1740.5q0 63.5 45 108.5t108.5 45t108.5 -45q47 -45 47 -108.5t-47 -108.5q-45 -45 -108.5 -45t-108.5 45t-45 108.5z"/>
<glyph unicode="©" d="M346 1126.5q0 69.5 26.5 135t80.5 118.5q51 51 117.5 78t135 27t134 -27t118.5 -78q53 -53 80 -118.5t27 -135t-26.5 -135t-80.5 -119.5q-53 -53 -118.5 -78.5t-134 -25.5t-135 25.5t-117.5 78.5q-53 53 -80 119t-27 135.5zM399 1126q0 -63 25 -119.5t65.5 -97.5 t97 -65.5t120.5 -24.5q63 0 118.5 24.5t97.5 65.5t66.5 97.5t24.5 119.5t-24.5 120t-66.5 97.5t-97.5 65.5t-118.5 25t-120 -25t-97.5 -65.5t-65.5 -97t-25 -120.5zM502 1124q0 43 16.5 81t44 65.5t65.5 44t81 16.5q51 0 94 -22.5t71 -59.5l9 -12l-68 -49l-8 10 q-37 49 -98 49q-53 0 -89 -35.5t-36 -87.5q0 -53 35.5 -89t89.5 -36q61 0 98 50l8 12l68 -51l-9 -11q-29 -39 -71.5 -61.5t-93.5 -22.5q-43 0 -81 16.5t-65.5 45.5t-44 66.5t-16.5 80.5z"/>
<glyph unicode="ª" horiz-adv-x="1253" d="M348 870l381 699l381 -699h-213l-37 68h-262l-37 -68h-213zM633 1071h192l-96 189z"/>
<glyph unicode="«" horiz-adv-x="1511" d="M328 717l344 491l252 -176l-219 -315l219 -316l-252 -176zM793 717l344 491l252 -176l-222 -315l222 -316l-252 -176z"/>
<glyph unicode="¬" horiz-adv-x="1863" d="M430 563v307h1126v-614h-307v307h-819z"/>
<glyph unicode="­" d="M348 563v307h717v-307h-717z"/>
<glyph unicode="®" d="M348 1126.5q0 69.5 25.5 135t79.5 118.5q53 51 118.5 78t135 27t135.5 -27t119 -78q51 -53 77.5 -118.5t26.5 -135t-26.5 -135t-77.5 -119.5q-53 -53 -119 -78.5t-135.5 -25.5t-135 25.5t-118.5 78.5t-79 119t-26 135.5zM399 1126q0 -63 25 -119.5t65.5 -97.5t97 -65.5 t120.5 -24.5q63 0 119.5 24.5t97.5 65.5t65.5 97.5t24.5 119.5t-24.5 120t-65.5 97.5t-97.5 65.5t-119.5 25t-120 -25t-97.5 -65.5t-65.5 -97t-25 -120.5zM565 918v413h152q63 0 107 -44t44 -107q0 -41 -19.5 -75t-51.5 -54l86 -133h-99l-71 110h-66v-110h-82zM647 1110h70 q29 0 49 20.5t20 49.5t-20.5 49t-48.5 20h-70v-139z"/>
<glyph unicode="°" horiz-adv-x="1003" d="M348 1229q0 53 20.5 99t55.5 81t81 55.5t99 20.5t99.5 -20.5t81 -55.5t55 -81t20.5 -99t-20.5 -99.5t-55 -81t-81 -55t-99.5 -20.5t-99 20.5t-81 55t-55.5 81t-20.5 99.5zM553 1229q0 -23 14.5 -37t36.5 -14q23 0 37 14t14 37t-14 37t-37 14t-37 -14.5t-14 -36.5z"/>
<glyph unicode="±" horiz-adv-x="1740" d="M410 51v307h1126v-307h-1126zM410 819v307h409v410h307v-410h410v-307h-410v-409h-307v409h-409z"/>
<glyph unicode="²" horiz-adv-x="962" d="M399 922l250 297q16 20 17 45q0 29 -20.5 48t-49.5 19t-48.5 -19.5t-19.5 -47.5q0 -18 7 -31l8 -16l-92 -46l-7 15q-18 33 -18 78q0 72 49 121t121 49t122 -49t50 -121q0 -63 -41 -111l-109 -129h150v-102h-369z"/>
<glyph unicode="³" horiz-adv-x="956" d="M414 1022l90 51q6 -23 24.5 -36t40.5 -13q29 0 48.5 19.5t19.5 48.5t-19.5 49t-48.5 20h-110l112 170h-129v103h320l-123 -187q45 -20 72.5 -61t27.5 -94q0 -72 -49 -121t-121 -49q-53 0 -94 27.5t-61 72.5z"/>
<glyph unicode="´" horiz-adv-x="1261" d="M410 1749l585 180l62 -196l-588 -181z"/>
<glyph unicode="¶" horiz-adv-x="1761" d="M401 1044q0 90 34 170t94.5 140.5t140.5 95.5t172 35h655v-221h-108v-1315h-222v1315h-106v-1315h-219v659q-92 0 -172 34t-140.5 93.5t-94.5 138t-34 170.5z"/>
<glyph unicode="·" horiz-adv-x="798" d="M348 716.5q0 63.5 45 108.5t108.5 45t108.5 -45t45 -108.5t-45 -108.5t-108.5 -45t-108.5 45t-45 108.5z"/>
<glyph unicode="¸" horiz-adv-x="870" d="M410 -102h51v153h205v-307h-256v154z"/>
<glyph unicode="¹" horiz-adv-x="696" d="M348 870v615h205v-615h-205z"/>
<glyph unicode="º" horiz-adv-x="1228" d="M410 1178q0 63 24.5 119.5t65.5 97.5t97.5 65.5t119.5 24.5t118.5 -24.5t97.5 -65.5t66.5 -97.5t24.5 -119.5t-24.5 -120t-66.5 -97.5t-97.5 -65.5t-118.5 -25t-119.5 25t-97.5 65.5t-65.5 97t-24.5 120.5zM614 1178q0 -43 30 -73t73 -30q41 0 71.5 30t30.5 73 t-30.5 72.5t-71.5 29.5q-43 0 -73 -29.5t-30 -72.5z"/>
<glyph unicode="»" horiz-adv-x="1511" d="M330 401l219 316l-219 315l252 176l342 -491l-342 -492zM795 401l219 316l-219 315l252 176l342 -491l-342 -492z"/>
<glyph unicode="¼" horiz-adv-x="2062" d="M451 55l1122 1481l203 -156l-1121 -1480zM573 934v512h103v-512h-103zM1386 119l93 401l100 -22l-63 -277h77v205h103v-205h69v-102h-69v-119h-103v119h-207z"/>
<glyph unicode="½" horiz-adv-x="2058" d="M451 55l1120 1481l205 -156l-1123 -1480zM582 922v512h102v-512h-102zM1393 0l249 297q16 20 17 45q0 29 -20.5 48.5t-49.5 19.5t-48 -19.5t-19 -48.5q0 -18 8 -33l6 -14l-90 -45l-8 14q-18 33 -19 78q0 72 49.5 121t120.5 49q72 0 122 -49t50 -121q0 -63 -41 -111 l-108 -129h149v-102h-368z"/>
<glyph unicode="¾" horiz-adv-x="2093" d="M481 55l1123 1481l204 -156l-1122 -1480zM516 1022l90 51q6 -23 24.5 -36t41.5 -13q29 0 49 19.5t20 48.5t-20.5 49t-48.5 20h-111l113 170h-129v103h319l-123 -187q45 -20 74 -61t29 -94q0 -72 -50.5 -121t-121.5 -49q-51 0 -92 27.5t-64 72.5zM1417 119l92 401l101 -22 l-64 -277h78v205h102v-205h70v-102h-70v-119h-102v119h-207z"/>
<glyph unicode="¿" horiz-adv-x="1439" d="M348 434q0 80 24.5 154t68.5 134t105.5 105t133.5 70v178h307v-461h-153q-74 0 -126.5 -52t-52.5 -128q0 -74 52.5 -126t126.5 -52q70 0 118.5 45t59.5 111l284 -127q-25 -74 -68.5 -135.5t-104 -105.5t-134 -69.5t-155.5 -25.5q-100 0 -188.5 38t-155 104.5 t-104.5 154.5t-38 188zM680 1178v307h307v-307h-307z"/>
<glyph unicode="À" horiz-adv-x="2164" d="M328 -51l884 1620l887 -1620h-350l-141 256h-791l-139 -256h-350zM885 1733l61 196l588 -180l-61 -197zM956 465h510l-254 465z"/>
<glyph unicode="Á" horiz-adv-x="2160" d="M328 -51l884 1620l887 -1620h-350l-141 256h-791l-139 -256h-350zM887 1749l586 180l61 -196l-588 -181zM956 465h510l-254 465z"/>
<glyph unicode="Â" horiz-adv-x="2166" d="M330 -51l884 1620l885 -1620h-348l-141 256h-791l-139 -256h-350zM891 1749l323 98l324 -98l-59 -197l-265 82l-264 -82zM987 512h455l-228 418z"/>
<glyph unicode="Ã" horiz-adv-x="2164" d="M328 -51l884 1620l887 -1620h-350l-141 256h-791l-139 -256h-350zM829 1739l39 30q51 43 121 66q66 20 136.5 14t136.5 -41q57 -31 118 -10q14 4 26.5 10.5t25.5 16.5l38 33l129 -160l-38 -31q-51 -42 -121 -65q-66 -20 -136.5 -14.5t-136.5 40.5q-57 31 -118 10 q-23 -4 -52 -26l-39 -33zM956 465h510l-254 465z"/>
<glyph unicode="Ä" horiz-adv-x="2164" d="M328 -51l884 1620l887 -1620h-350l-141 256h-791l-139 -256h-350zM752 1740.5q0 63.5 45 108.5t108.5 45t108.5 -45q47 -45 47 -108.5t-47 -108.5q-45 -45 -108.5 -45t-108.5 45t-45 108.5zM956 465h510l-254 465zM1366 1740.5q0 63.5 45 108.5t108.5 45t108.5 -45 q47 -45 47 -108.5t-47 -108.5q-45 -45 -108.5 -45t-108.5 45t-45 108.5z"/>
<glyph unicode="Å" horiz-adv-x="2164" d="M328 -51l884 1620l887 -1620h-350l-141 256h-791l-139 -256h-350zM956 465h510l-254 465zM1008 1792q0 39 14 77t45 68q31 31 67.5 45.5t76.5 14.5t77 -14.5t68 -45.5t45 -68.5t14 -76.5t-14.5 -77t-44.5 -68q-31 -31 -68 -45.5t-77 -14.5t-76.5 14.5t-67.5 45.5 t-45 68.5t-14 76.5zM1161 1792q0 -23 14.5 -37t36.5 -14q23 0 37.5 14t14.5 37t-14.5 37t-37.5 14t-37 -14t-14 -37z"/>
<glyph unicode="Æ" horiz-adv-x="2760" d="M328 -51l837 1536h1268v-307h-819v-306h614v-307h-614v-309h819v-307h-1126v205h-519l-110 -205h-350zM956 461h351v641z"/>
<glyph unicode="Ç" horiz-adv-x="1923" d="M369 717q0 160 60 299t164.5 243.5t244 165t299.5 60.5q188 0 348 -83t264 -222l31 -41l-244 -187l-31 41q-63 86 -158.5 135.5t-209.5 49.5q-96 0 -179.5 -36t-146.5 -99.5t-99 -147.5t-36 -178q0 -96 36 -179t99 -146.5t146 -99.5t180 -36q115 0 210 49t158 135l31 41 l244 -186l-31 -41q-92 -121 -222 -199t-288 -100v-211h-256v154h51v57q-141 18 -262 86t-211 169t-141 231t-51 276z"/>
<glyph unicode="È" horiz-adv-x="2007" d="M553 -51v1536h1126v-307h-819v-308h615v-307h-615v-307h819v-307h-1126zM793 1733l59 196l588 -180l-60 -197z"/>
<glyph unicode="É" horiz-adv-x="2007" d="M553 -51v1536h1126v-307h-819v-308h615v-307h-615v-307h819v-307h-1126zM793 1749l587 180l60 -196l-588 -181z"/>
<glyph unicode="Ê" horiz-adv-x="2007" d="M553 -51v1536h1126v-307h-819v-308h615v-307h-615v-307h819v-307h-1126zM793 1749l323 98l324 -98l-60 -197l-264 82l-264 -82z"/>
<glyph unicode="Ë" horiz-adv-x="2007" d="M553 -51v1536h1126v-307h-819v-308h615v-307h-615v-307h819v-307h-1126zM655 1740.5q0 63.5 45 108.5q47 45 110 45t108 -45q47 -45 47 -108.5t-47 -108.5q-45 -45 -107.5 -45t-110.5 45q-45 45 -45 108.5zM1270 1740.5q0 63.5 45 108.5q47 45 109.5 45t107.5 -45 q47 -45 47 -108.5t-47 -108.5q-45 -45 -107.5 -45t-109.5 45q-45 45 -45 108.5z"/>
<glyph unicode="Ì" d="M383 1733l59 196l588 -180l-59 -197zM553 -51v1536h307v-1536h-307z"/>
<glyph unicode="Í" d="M383 1749l588 180l59 -196l-588 -181zM553 -51v1536h307v-1536h-307z"/>
<glyph unicode="Î" d="M381 1749l326 98l323 -98l-61 -197l-262 82l-265 -82zM553 -51v1536h307v-1536h-307z"/>
<glyph unicode="Ï" d="M244 1740.5q0 63.5 47 108.5q45 45 107.5 45t109.5 -45q45 -45 45 -108.5t-45 -108.5q-47 -45 -109.5 -45t-107.5 45q-47 45 -47 108.5zM553 -51v1536h307v-1536h-307zM858 1740.5q0 63.5 47 108.5q45 45 107.5 45t109.5 -45q45 -45 45 -108.5t-45 -108.5 q-47 -45 -109.5 -45t-107.5 45q-47 45 -47 108.5z"/>
<glyph unicode="Ð" horiz-adv-x="2150" d="M451 358v308h204v819h564q160 0 299 -60.5t243.5 -165t165 -243.5t60.5 -299t-60.5 -299t-165 -243.5t-244 -165t-298.5 -60.5h-564v409h-204zM963 256h256q94 0 178 36t147.5 99.5t99 146.5t35.5 179q0 94 -35.5 178t-99 147.5t-147.5 99.5t-178 36h-256v-512h204v-308 h-204v-102z"/>
<glyph unicode="Ñ" horiz-adv-x="2232" d="M553 -51v1536h82l942 -897v897h307v-1536h-84l-940 897v-897h-307zM834 1739l38 33q59 45 121 63q66 20 136.5 14t136.5 -41q57 -31 118 -10q29 10 52 27l39 33l129 -160l-39 -31q-51 -42 -121 -65q-66 -20 -136.5 -14.5t-136.5 40.5q-57 31 -118 10q-23 -4 -52 -26 l-38 -33z"/>
<glyph unicode="Ò" horiz-adv-x="2027" d="M348 717q0 160 60.5 299t165 243.5t243.5 165t299 60.5t299 -60.5t243.5 -165t165 -243.5t60.5 -299t-60.5 -299t-165 -243.5t-243.5 -165t-299 -60.5t-299 60.5t-243.5 165t-165 243.5t-60.5 299zM655 717q0 -96 36 -179t99.5 -146.5t146.5 -99.5t179 -36q94 0 178 36 t147.5 99.5t99.5 146.5t36 179q0 94 -36 178t-99.5 147.5t-147.5 99.5t-178 36q-96 0 -179 -36t-146.5 -99.5t-99.5 -147.5t-36 -178zM793 1733l59 196l588 -180l-60 -197z"/>
<glyph unicode="Ó" horiz-adv-x="2027" d="M348 717q0 160 60.5 299t165 243.5t243.5 165t299 60.5t299 -60.5t243.5 -165t165 -243.5t60.5 -299t-60.5 -299t-165 -243.5t-243.5 -165t-299 -60.5t-299 60.5t-243.5 165t-165 243.5t-60.5 299zM655 717q0 -96 36 -179t99.5 -146.5t146.5 -99.5t179 -36t180 36 t146.5 99.5t98.5 146.5t36 179q0 94 -36 178t-98.5 147.5t-146.5 99.5t-180 36t-179 -36t-146.5 -99.5t-99.5 -147.5t-36 -178zM793 1749l587 180l60 -196l-586 -181z"/>
<glyph unicode="Ô" horiz-adv-x="2027" d="M348 717q0 160 60.5 299t165 243.5t243.5 165t299 60.5t299 -60.5t243.5 -165t165 -243.5t60.5 -299t-60.5 -299t-165 -243.5t-243.5 -165t-299 -60.5t-299 60.5t-243.5 165t-165 243.5t-60.5 299zM655 717q0 -96 36 -179t99.5 -146.5t146.5 -99.5t179 -36q94 0 178 36 t147.5 99.5t99.5 146.5t36 179q0 94 -36 178t-99.5 147.5t-147.5 99.5t-178 36q-96 0 -179 -36t-146.5 -99.5t-99.5 -147.5t-36 -178zM793 1749l323 98l324 -98l-60 -197l-264 82l-264 -82z"/>
<glyph unicode="Õ" horiz-adv-x="2027" d="M348 717q0 160 60.5 299t164 243.5t243.5 165t300 60.5t299 -60.5t243.5 -165t165 -243.5t60.5 -299t-60.5 -299t-165 -243.5t-243.5 -165t-299 -60.5t-300 60.5t-243.5 165t-164 243.5t-60.5 299zM655 717q0 -96 36 -179t98.5 -146.5t146.5 -99.5t180 -36q94 0 178 36 t147.5 99.5t99.5 146.5t36 179q0 94 -36 178t-99.5 147.5t-147.5 99.5t-178 36q-96 0 -180 -36t-146.5 -99.5t-98.5 -147.5t-36 -178zM729 1739l39 33q59 47 123 63q66 20 136.5 14t135.5 -41q29 -16 58.5 -18t58.5 8q33 10 53 27l37 33l131 -160l-39 -31q-51 -42 -123 -65 q-66 -20 -136 -14.5t-136 40.5q-29 16 -58.5 18.5t-58.5 -8.5q-27 -6 -51 -26l-39 -33z"/>
<glyph unicode="Ö" horiz-adv-x="2027" d="M348 717q0 160 60.5 299t165 243.5t243.5 165t299 60.5t299 -60.5t243.5 -165t165 -243.5t60.5 -299t-60.5 -299t-165 -243.5t-243.5 -165t-299 -60.5t-299 60.5t-243.5 165t-165 243.5t-60.5 299zM653 1740.5q0 63.5 47 108.5q45 45 108 45t110 -45q51 -51 43.5 -111.5 t-48.5 -101.5t-100 -49t-113 45q-47 45 -47 108.5zM655 717q0 -96 36 -179t98.5 -146.5t146.5 -99.5t180 -36q94 0 178 36t147.5 99.5t99.5 146.5t36 179q0 94 -36 178t-99.5 147.5t-147.5 99.5t-178 36q-96 0 -180 -36t-146.5 -99.5t-98.5 -147.5t-36 -178zM1268 1740.5 q0 63.5 47 108.5q45 45 107.5 45t109.5 -45q45 -45 45 -108.5t-45 -108.5q-47 -45 -109.5 -45t-107.5 45q-47 45 -47 108.5z"/>
<glyph unicode="×" horiz-adv-x="1673" d="M455 428l288 289l-288 289l217 217l289 -289l288 289l219 -217l-290 -289l290 -289l-219 -217l-288 289l-289 -289z"/>
<glyph unicode="Ø" horiz-adv-x="2125" d="M369 137l155 156q-59 92 -93 199.5t-34 224.5q0 160 60.5 299t165 243.5t244 165t298.5 60.5q117 0 224.5 -34t199.5 -93l156 155l217 -217l-156 -155q59 -92 93 -199.5t34 -224.5q0 -160 -60.5 -299t-164.5 -243.5t-243.5 -165t-299.5 -60.5q-117 0 -224 33.5t-200 93.5 l-155 -156zM705 717q0 -104 45 -199l614 615q-94 45 -199 45q-96 0 -179 -36t-146.5 -99.5t-99 -147.5t-35.5 -178zM967 301q94 -45 198 -45q94 0 178 36t147.5 99.5t99.5 146.5t36 179q0 104 -45 198z"/>
<glyph unicode="Ù" horiz-adv-x="2150" d="M512 614v871h307v-871q0 -74 27.5 -139t77 -114.5t115 -77t139.5 -27.5t139 27.5t114.5 77t77 115t27.5 138.5v871h307v-871q0 -137 -52 -257.5t-143.5 -212t-212 -143.5t-257.5 -52t-258 52t-212.5 143.5t-143.5 212t-52 257.5zM854 1733l59 196l588 -180l-59 -197z"/>
<glyph unicode="Ú" horiz-adv-x="2150" d="M512 614v871h307v-871q0 -74 27.5 -139t77 -114.5t115 -77t139.5 -27.5t139 27.5t114.5 77t77 115t27.5 138.5v871h307v-871q0 -137 -52 -257.5t-143.5 -212t-212 -143.5t-257.5 -52t-258 52t-212.5 143.5t-143.5 212t-52 257.5zM854 1749l588 180l59 -196l-588 -181z "/>
<glyph unicode="Û" horiz-adv-x="2150" d="M512 614v871h307v-871q0 -74 27.5 -139t77 -114.5t115 -77t139.5 -27.5t139 27.5t113.5 77t77 115t28.5 138.5v871h307v-871q0 -137 -52 -257.5t-143.5 -212t-212 -143.5t-257.5 -52q-139 0 -260 52t-211.5 143.5t-142.5 212t-52 257.5zM854 1749l324 98l323 -98 l-61 -197l-262 82l-265 -82z"/>
<glyph unicode="Ü" horiz-adv-x="2150" d="M512 614v871h307v-871q0 -74 29 -139t77 -114.5t113.5 -77t139.5 -27.5t139 27.5t114.5 77t77 115t27.5 138.5v871h307v-871q0 -137 -52 -257.5t-142 -212t-212 -143.5t-259 -52t-258 52t-212.5 143.5t-143.5 212t-52 257.5zM717 1740.5q0 63.5 45 108.5q47 45 109.5 45 t107.5 -45q47 -45 47 -108.5t-47 -108.5q-45 -45 -107.5 -45t-109.5 45q-45 45 -45 108.5zM1331 1740.5q0 63.5 45 108.5q47 45 109.5 45t107.5 -45q47 -45 47 -108.5t-47 -108.5q-45 -45 -107.5 -45t-109.5 45q-45 45 -45 108.5z"/>
<glyph unicode="Ý" horiz-adv-x="1828" d="M246 1485h362l408 -651l409 651h363l-619 -985v-551h-307v551zM692 1749l588 180l59 -196l-585 -181z"/>
<glyph unicode="Þ" horiz-adv-x="1904" d="M553 -51v1536h307v-205h256q117 0 219.5 -44t179 -121t120.5 -179t44 -219t-44 -219.5t-120.5 -179t-179 -120.5t-219.5 -44h-256v-205h-307zM860 461h256q53 0 99.5 20.5t81 55t55 81t20.5 99.5t-20.5 99t-55 81t-81 55.5t-99.5 20.5h-256v-512z"/>
<glyph unicode="ß" horiz-adv-x="1822" d="M553 -51v1075q0 94 36 178t99.5 147.5t146.5 99.5t179 36q94 0 178 -36t147.5 -99.5t99.5 -147.5t36 -178q0 -96 -36 -179t-100 -147q-45 -45 -45 -108.5t45 -108.5q63 -63 99.5 -146t36.5 -179v-207h-308v207q0 63 -45 108q-68 68 -101.5 153t-33.5 173t34 173t101 152 q45 45 45 109q0 63 -45 108.5t-108 45.5t-108.5 -45.5t-45.5 -108.5v-1075h-307z"/>
<glyph unicode="à" horiz-adv-x="2164" d="M328 -51l884 1620l887 -1620h-350l-141 256h-791l-139 -256h-350zM885 1733l61 196l588 -180l-61 -197zM956 465h510l-254 465z"/>
<glyph unicode="á" horiz-adv-x="2164" d="M328 -51l884 1620l887 -1620h-350l-141 256h-791l-139 -256h-350zM887 1749l586 180l61 -196l-588 -181zM956 465h510l-254 465z"/>
<glyph unicode="â" horiz-adv-x="2164" d="M328 -51l884 1620l887 -1620h-350l-141 256h-791l-139 -256h-350zM891 1749l323 98l324 -98l-59 -197l-265 82l-264 -82zM956 465h510l-254 465z"/>
<glyph unicode="ã" horiz-adv-x="2160" d="M328 -51l884 1620l887 -1620h-350l-141 256h-791l-139 -256h-350zM829 1739l39 30q51 43 121 66q66 20 136.5 14t136.5 -41q57 -31 118 -10q14 4 26.5 10.5t25.5 16.5l38 33l129 -160l-38 -31q-51 -42 -121 -65q-66 -20 -136.5 -14.5t-136.5 40.5q-57 31 -118 10 q-23 -4 -52 -26l-39 -33zM956 465h510l-254 465z"/>
<glyph unicode="ä" horiz-adv-x="2164" d="M328 -51l884 1620l887 -1620h-350l-141 256h-791l-139 -256h-350zM752 1740.5q0 63.5 45 108.5t108.5 45t108.5 -45q47 -45 47 -108.5t-47 -108.5q-45 -45 -108.5 -45t-108.5 45t-45 108.5zM956 465h510l-254 465zM1366 1740.5q0 63.5 45 108.5t108.5 45t108.5 -45 q47 -45 47 -108.5t-47 -108.5q-45 -45 -108.5 -45t-108.5 45t-45 108.5z"/>
<glyph unicode="å" horiz-adv-x="2164" d="M328 -51l884 1620l887 -1620h-350l-141 256h-791l-139 -256h-350zM956 465h510l-254 465zM1008 1792q0 39 14 77t45 68q31 31 67.5 45.5t76.5 14.5t77 -14.5t68 -45.5t45 -68.5t14 -76.5t-14.5 -77t-44.5 -68q-31 -31 -68 -45.5t-77 -14.5t-76.5 14.5t-67.5 45.5 t-45 68.5t-14 76.5zM1161 1792q0 -23 14.5 -37t36.5 -14q23 0 37.5 14t14.5 37t-14.5 37t-37.5 14t-37 -14t-14 -37z"/>
<glyph unicode="æ" horiz-adv-x="2760" d="M328 -51l837 1536h1268v-307h-819v-306h614v-307h-614v-309h819v-307h-1126v205h-519l-110 -205h-350zM956 461h351v641z"/>
<glyph unicode="ç" horiz-adv-x="1923" d="M369 717q0 160 60 299t164.5 243.5t244 165t299.5 60.5q188 0 348 -83t264 -222l31 -41l-244 -187l-31 41q-63 86 -158.5 135.5t-209.5 49.5q-96 0 -179.5 -36t-146.5 -99.5t-99 -147.5t-36 -178q0 -96 36 -179t99 -146.5t146 -99.5t180 -36q115 0 210 49t158 135l31 41 l244 -186l-31 -41q-92 -121 -222 -199t-288 -100v-211h-256v154h51v57q-141 18 -262 86t-211 169t-141 231t-51 276z"/>
<glyph unicode="è" horiz-adv-x="2007" d="M553 -51v1536h1126v-307h-819v-308h615v-307h-615v-307h819v-307h-1126zM793 1733l59 196l588 -180l-60 -197z"/>
<glyph unicode="é" horiz-adv-x="2007" d="M553 -51v1536h1126v-307h-819v-308h615v-307h-615v-307h819v-307h-1126zM793 1749l587 180l60 -196l-588 -181z"/>
<glyph unicode="ê" horiz-adv-x="2007" d="M553 -51v1536h1126v-307h-819v-308h615v-307h-615v-307h819v-307h-1126zM793 1749l323 98l324 -98l-60 -197l-264 82l-264 -82z"/>
<glyph unicode="ë" horiz-adv-x="2007" d="M553 -51v1536h1126v-307h-819v-308h615v-307h-615v-307h819v-307h-1126zM655 1740.5q0 63.5 45 108.5q47 45 110 45t108 -45q47 -45 47 -108.5t-47 -108.5q-45 -45 -107.5 -45t-110.5 45q-45 45 -45 108.5zM1270 1740.5q0 63.5 45 108.5q47 45 109.5 45t107.5 -45 q47 -45 47 -108.5t-47 -108.5q-45 -45 -107.5 -45t-109.5 45q-45 45 -45 108.5z"/>
<glyph unicode="ì" horiz-adv-x="1157" d="M383 1733l59 196l588 -180l-59 -197zM553 -51v1536h307v-1536h-307z"/>
<glyph unicode="í" d="M383 1749l588 180l59 -196l-588 -181zM553 -51v1536h307v-1536h-307z"/>
<glyph unicode="î" d="M381 1749l326 98l323 -98l-61 -197l-262 82l-265 -82zM553 -51v1536h307v-1536h-307z"/>
<glyph unicode="ï" d="M244 1740.5q0 63.5 47 108.5q45 45 107.5 45t109.5 -45q45 -45 45 -108.5t-45 -108.5q-47 -45 -109.5 -45t-107.5 45q-47 45 -47 108.5zM553 -51v1536h307v-1536h-307zM858 1740.5q0 63.5 47 108.5q45 45 107.5 45t109.5 -45q45 -45 45 -108.5t-45 -108.5 q-47 -45 -109.5 -45t-107.5 45q-47 45 -47 108.5z"/>
<glyph unicode="ð" horiz-adv-x="2150" d="M451 358v308h204v819h564q160 0 299 -60.5t243.5 -165t165 -243.5t60.5 -299t-60.5 -299t-165 -243.5t-244 -165t-298.5 -60.5h-564v409h-204zM963 256h256q94 0 178 36t147.5 99.5t99 146.5t35.5 179q0 94 -35.5 178t-99 147.5t-147.5 99.5t-178 36h-256v-512h204v-308 h-204v-102z"/>
<glyph unicode="ñ" horiz-adv-x="2232" d="M553 -51v1536h82l942 -897v897h307v-1536h-84l-940 897v-897h-307zM834 1739l38 33q59 45 121 63q66 20 136.5 14t136.5 -41q57 -31 118 -10q29 10 52 27l39 33l129 -160l-39 -31q-51 -42 -121 -65q-66 -20 -136.5 -14.5t-136.5 40.5q-57 31 -118 10q-23 -4 -52 -26 l-38 -33z"/>
<glyph unicode="ò" horiz-adv-x="2027" d="M348 717q0 160 60.5 299t165 243.5t243.5 165t299 60.5t299 -60.5t243.5 -165t165 -243.5t60.5 -299t-60.5 -299t-165 -243.5t-243.5 -165t-299 -60.5t-299 60.5t-243.5 165t-165 243.5t-60.5 299zM655 717q0 -96 36 -179t99.5 -146.5t146.5 -99.5t179 -36q94 0 178 36 t147.5 99.5t99.5 146.5t36 179q0 94 -36 178t-99.5 147.5t-147.5 99.5t-178 36q-96 0 -179 -36t-146.5 -99.5t-99.5 -147.5t-36 -178zM793 1733l59 196l588 -180l-60 -197z"/>
<glyph unicode="ó" horiz-adv-x="2027" d="M348 717q0 160 60.5 299t165 243.5t243.5 165t299 60.5t299 -60.5t243.5 -165t165 -243.5t60.5 -299t-60.5 -299t-165 -243.5t-243.5 -165t-299 -60.5t-299 60.5t-243.5 165t-165 243.5t-60.5 299zM655 717q0 -96 36 -179t99.5 -146.5t146.5 -99.5t179 -36t180 36 t146.5 99.5t98.5 146.5t36 179q0 94 -36 178t-98.5 147.5t-146.5 99.5t-180 36t-179 -36t-146.5 -99.5t-99.5 -147.5t-36 -178zM793 1749l587 180l60 -196l-586 -181z"/>
<glyph unicode="ô" horiz-adv-x="2027" d="M348 717q0 160 60.5 299t165 243.5t243.5 165t299 60.5t299 -60.5t243.5 -165t165 -243.5t60.5 -299t-60.5 -299t-165 -243.5t-243.5 -165t-299 -60.5t-299 60.5t-243.5 165t-165 243.5t-60.5 299zM655 717q0 -96 36 -179t99.5 -146.5t146.5 -99.5t179 -36q94 0 178 36 t147.5 99.5t99.5 146.5t36 179q0 94 -36 178t-99.5 147.5t-147.5 99.5t-178 36q-96 0 -179 -36t-146.5 -99.5t-99.5 -147.5t-36 -178zM793 1749l323 98l324 -98l-60 -197l-264 82l-264 -82z"/>
<glyph unicode="õ" horiz-adv-x="2027" d="M348 717q0 160 60.5 299t164 243.5t243.5 165t300 60.5t299 -60.5t243.5 -165t165 -243.5t60.5 -299t-60.5 -299t-165 -243.5t-243.5 -165t-299 -60.5t-300 60.5t-243.5 165t-164 243.5t-60.5 299zM655 717q0 -96 36 -179t98.5 -146.5t146.5 -99.5t180 -36q94 0 178 36 t147.5 99.5t99.5 146.5t36 179q0 94 -36 178t-99.5 147.5t-147.5 99.5t-178 36q-96 0 -180 -36t-146.5 -99.5t-98.5 -147.5t-36 -178zM729 1739l39 33q59 47 123 63q66 20 136.5 14t135.5 -41q29 -16 58.5 -18t58.5 8q33 10 53 27l37 33l131 -160l-39 -31q-51 -42 -123 -65 q-66 -20 -136 -14.5t-136 40.5q-29 16 -58.5 18.5t-58.5 -8.5q-27 -6 -51 -26l-39 -33z"/>
<glyph unicode="ö" horiz-adv-x="2027" d="M348 717q0 160 60.5 299t165 243.5t243.5 165t299 60.5t299 -60.5t243.5 -165t165 -243.5t60.5 -299t-60.5 -299t-165 -243.5t-243.5 -165t-299 -60.5t-299 60.5t-243.5 165t-165 243.5t-60.5 299zM653 1740.5q0 63.5 47 108.5q45 45 108 45t110 -45q45 -45 45 -108.5 t-45 -108.5q-47 -45 -110 -45t-108 45q-47 45 -47 108.5zM655 717q0 -96 36 -179t98.5 -146.5t146.5 -99.5t180 -36q94 0 178 36t147.5 99.5t99.5 146.5t36 179q0 94 -36 178t-99.5 147.5t-147.5 99.5t-178 36q-96 0 -180 -36t-146.5 -99.5t-98.5 -147.5t-36 -178z M1268 1740.5q0 63.5 47 108.5q45 45 107.5 45t109.5 -45q45 -45 45 -108.5t-45 -108.5q-47 -45 -109.5 -45t-107.5 45q-47 45 -47 108.5z"/>
<glyph unicode="÷" horiz-adv-x="1740" d="M410 563v307h1126v-307h-1126zM768 307q0 39 14.5 77t44.5 69q31 31 69 45t77 14t76.5 -14t68.5 -45t45.5 -69t14.5 -77t-14.5 -76.5t-45.5 -68.5t-68.5 -45.5t-76.5 -14.5t-77 14.5t-69 45.5t-45 68.5t-14 76.5zM768 1126q0 39 14.5 77t44.5 69q31 31 69 45t77 14 t76.5 -14t68.5 -45t45.5 -69t14.5 -77t-14.5 -76.5t-45.5 -68.5t-68.5 -45t-76.5 -14t-77 14t-69 45t-45 68.5t-14 76.5z"/>
<glyph unicode="ø" horiz-adv-x="2125" d="M369 137l155 156q-59 92 -93 199.5t-34 224.5q0 160 60.5 299t165 243.5t244 165t298.5 60.5q117 0 224.5 -34t199.5 -93l156 155l217 -217l-156 -155q59 -92 93 -199.5t34 -224.5q0 -160 -60.5 -299t-164.5 -243.5t-243.5 -165t-299.5 -60.5q-117 0 -224 33.5t-200 93.5 l-155 -156zM705 717q0 -104 45 -199l614 615q-94 45 -199 45q-96 0 -179 -36t-146.5 -99.5t-99 -147.5t-35.5 -178zM967 301q94 -45 198 -45q94 0 178 36t147.5 99.5t99.5 146.5t36 179q0 104 -45 198z"/>
<glyph unicode="ù" horiz-adv-x="2150" d="M512 614v871h307v-871q0 -74 27.5 -139t77 -114.5t115 -77t139.5 -27.5t139 27.5t114.5 77t77 115t27.5 138.5v871h307v-871q0 -137 -52 -257.5t-143.5 -212t-212 -143.5t-257.5 -52t-258 52t-212.5 143.5t-143.5 212t-52 257.5zM854 1733l59 196l588 -180l-59 -197z"/>
<glyph unicode="ú" horiz-adv-x="2150" d="M512 614v871h307v-871q0 -74 27.5 -139t77 -114.5t115 -77t139.5 -27.5t139 27.5t114.5 77t77 115t27.5 138.5v871h307v-871q0 -137 -52 -257.5t-143.5 -212t-212 -143.5t-257.5 -52t-258 52t-212.5 143.5t-143.5 212t-52 257.5zM854 1749l588 180l59 -196l-588 -181z "/>
<glyph unicode="û" horiz-adv-x="2150" d="M512 614v871h307v-871q0 -74 27.5 -139t77 -114.5t115 -77t139.5 -27.5t139 27.5t113.5 77t77 115t28.5 138.5v871h307v-871q0 -137 -52 -257.5t-143.5 -212t-212 -143.5t-257.5 -52q-139 0 -260 52t-211.5 143.5t-142.5 212t-52 257.5zM854 1749l324 98l323 -98 l-61 -197l-262 82l-265 -82z"/>
<glyph unicode="ü" horiz-adv-x="2150" d="M512 614v871h307v-871q0 -74 29 -139t77 -114.5t113.5 -77t139.5 -27.5t139 27.5t114.5 77t77 115t27.5 138.5v871h307v-871q0 -137 -52 -257.5t-142 -212t-212 -143.5t-259 -52t-258 52t-212.5 143.5t-143.5 212t-52 257.5zM717 1740.5q0 63.5 45 108.5q47 45 109.5 45 t107.5 -45q47 -45 47 -108.5t-47 -108.5q-45 -45 -107.5 -45t-109.5 45q-45 45 -45 108.5zM1331 1740.5q0 63.5 45 108.5q47 45 109.5 45t107.5 -45q47 -45 47 -108.5t-47 -108.5q-45 -45 -107.5 -45t-109.5 45q-45 45 -45 108.5z"/>
<glyph unicode="ý" horiz-adv-x="1828" d="M246 1485h362l408 -651l409 651h363l-619 -985v-551h-307v551zM692 1749l588 180l59 -196l-585 -181z"/>
<glyph unicode="þ" horiz-adv-x="1904" d="M553 -51v1536h307v-205h256q117 0 219.5 -44t179 -121t120.5 -179t44 -219t-44 -219.5t-120.5 -179t-179 -120.5t-219.5 -44h-256v-205h-307zM860 461h256q53 0 99.5 20.5t81 55t55 81t20.5 99.5t-20.5 99t-55 81t-81 55.5t-99.5 20.5h-256v-512z"/>
<glyph unicode="ÿ" horiz-adv-x="1828" d="M246 1485h362l408 -651l409 651h363l-619 -985v-551h-307v551zM555 1740.5q0 63.5 45 108.5t108.5 45t108.5 -45q47 -45 47 -108.5t-47 -108.5q-45 -45 -108.5 -45t-108.5 45t-45 108.5zM1169 1740.5q0 63.5 45 108.5t109 45t109 -45q47 -45 47 -108.5t-47 -108.5 q-45 -45 -108.5 -45t-109.5 45q-45 45 -45 108.5z"/>
<glyph unicode="Œ" horiz-adv-x="2672" d="M348 717q0 160 60.5 299t165 243.5t243.5 165t299 60.5h1229v-307h-819v-308h614v-307h-614v-307h819v-307h-1229q-160 0 -299 60.5t-243.5 165t-165 243.5t-60.5 299zM655 717q0 -96 36 -179t99.5 -146.5t146.5 -99.5t179 -36h103v922h-103q-96 0 -179 -36t-146.5 -99.5 t-99.5 -147.5t-36 -178z"/>
<glyph unicode="œ" horiz-adv-x="2672" d="M348 717q0 160 60.5 299t165 243.5t243.5 165t299 60.5h1229v-307h-819v-308h614v-307h-614v-307h819v-307h-1229q-160 0 -299 60.5t-243.5 165t-165 243.5t-60.5 299zM655 717q0 -96 36 -179t99.5 -146.5t146.5 -99.5t179 -36h103v922h-103q-96 0 -179 -36t-146.5 -99.5 t-99.5 -147.5t-36 -178z"/>
<glyph unicode="Ÿ" horiz-adv-x="1828" d="M246 1485h362l408 -651l409 651h363l-619 -985v-551h-307v551zM555 1740.5q0 63.5 45 108.5t108.5 45t108.5 -45q47 -45 47 -108.5t-47 -108.5q-45 -45 -108.5 -45t-108.5 45t-45 108.5zM1169 1740.5q0 63.5 45 108.5t109 45t109 -45q47 -45 47 -108.5t-47 -108.5 q-45 -45 -108.5 -45t-109.5 45q-45 45 -45 108.5z"/>
<glyph unicode="ˆ" horiz-adv-x="1261" d="M410 1749l323 98l324 -98l-60 -197l-264 82l-264 -82z"/>
<glyph unicode="˜" horiz-adv-x="1384" d="M410 1739l39 30q51 43 120 66q66 20 136.5 14t136.5 -41q57 -31 119 -10q14 4 26 10.5t25 16.5l39 33l129 -160l-39 -31q-51 -42 -121 -65q-66 -20 -137.5 -14.5t-137.5 40.5q-53 31 -116 10q-23 -4 -51 -26l-39 -33z"/>
<glyph unicode=" " horiz-adv-x="998"/>
<glyph unicode=" " horiz-adv-x="1997"/>
<glyph unicode=" " horiz-adv-x="998"/>
<glyph unicode=" " horiz-adv-x="1997"/>
<glyph unicode=" " horiz-adv-x="665"/>
<glyph unicode=" " horiz-adv-x="499"/>
<glyph unicode=" " horiz-adv-x="332"/>
<glyph unicode=" " horiz-adv-x="332"/>
<glyph unicode=" " horiz-adv-x="249"/>
<glyph unicode=" " horiz-adv-x="399"/>
<glyph unicode=" " horiz-adv-x="110"/>
<glyph unicode="‐" d="M348 563v307h717v-307h-717z"/>
<glyph unicode="‑" d="M348 563v307h717v-307h-717z"/>
<glyph unicode="‒" d="M348 563v307h717v-307h-717z"/>
<glyph unicode="–" horiz-adv-x="1740" d="M410 563v307h1126v-307h-1126z"/>
<glyph unicode="—" horiz-adv-x="2764" d="M410 563v307h2150v-307h-2150z"/>
<glyph unicode="‘" horiz-adv-x="921" d="M410 973v268l120 244h187v-512h-307z"/>
<glyph unicode="’" horiz-adv-x="921" d="M410 973v512h307v-268l-123 -244h-184z"/>
<glyph unicode="‚" horiz-adv-x="921" d="M410 256h307v-268l-123 -244h-184v512z"/>
<glyph unicode="“" horiz-adv-x="1331" d="M410 973v268l120 244h187v-512h-307zM819 973v268l121 244h186v-512h-307z"/>
<glyph unicode="”" horiz-adv-x="1331" d="M410 973v512h307v-268l-121 -244h-186zM819 973v512h307v-268l-120 -244h-187z"/>
<glyph unicode="„" horiz-adv-x="1331" d="M410 256h307v-268l-121 -244h-186v512zM819 256h307v-268l-120 -244h-187v512z"/>
<glyph unicode="•" horiz-adv-x="1126" d="M410 717q0 53 20.5 99t55 81t81 55.5t99.5 20.5t99 -20.5t81 -55.5t55.5 -81t20.5 -99t-20.5 -99.5t-55.5 -81t-81 -55t-99 -20.5t-99.5 20.5t-81 55t-55 81t-20.5 99.5z"/>
<glyph unicode="…" horiz-adv-x="2048" d="M410 -51v307h307v-307h-307zM973 -51v307h307v-307h-307zM1536 -51v307h307v-307h-307z"/>
<glyph unicode=" " horiz-adv-x="399"/>
<glyph unicode="‹" horiz-adv-x="1046" d="M328 717l344 491l252 -176l-222 -315l222 -316l-252 -176z"/>
<glyph unicode="›" horiz-adv-x="1046" d="M330 401l219 316l-219 315l252 176l342 -491l-342 -492z"/>
<glyph unicode=" " horiz-adv-x="499"/>
<glyph unicode="€" horiz-adv-x="2127" d="M369 358l75 308h131q-2 12 -2 25.5v25.5v25.5t2 25.5h-169l75 307h181q49 92 119.5 167t157.5 129t189.5 84t212.5 30q188 0 348 -83t265 -222l31 -41l-244 -187l-31 41q-63 86 -158.5 135.5t-210.5 49.5q-84 0 -156.5 -28t-131.5 -75h252l-78 -307h-344q-2 -12 -2 -25.5 v-25.5v-26.5t2 -24.5h385l-78 -308h-137q59 -47 131.5 -74.5t156.5 -27.5q115 0 210.5 49t158.5 135l31 41l244 -186l-31 -41q-104 -141 -264 -223t-349 -82q-111 0 -213 29.5t-189 84t-157.5 129t-119.5 166.5h-293z"/>
<glyph unicode="™" horiz-adv-x="1384" d="M348 1300v185h600l64 -92l63 92h166v-514h-184v159l-45 -65l-45 65v-159h-185v329h-112v-329h-185v329h-137z"/>
<glyph unicode="◼" horiz-adv-x="1485" d="M0 0v1485h1485v-1485h-1485z"/>
</font>
</defs>
</svg>
